恋はどう?モロ◎波動OK☆方程式!!
あべにゅぅぷろじぇくと feat.佐倉紗織 produced by ave;new

BASIC

Level: 4
BPM: 128
Notes: 218

1
口口口口 |----|
口口口口 |----|
口口口口 |----|
口口口口 |----|
2
口口口口 |①---|
口②①口 |----|
口口口口 |②---|
口口口口 |----|
3
口口口口 |①---|
口口口口 |----|
口②①口 |②---|
口口口口 |----|
4
口口口口 |①---|
口②①口 |----|
口口口口 |②---|
口口口口 |----|
5
口口口口 |①---|
②口口② |②---|
③①①③ |③---|
④口口④ |④---|
6
口口口口 |①---|
口③③口 |②---|
口口②口 |③---|
口口①口 |----|
7
口口口口 |①---|
口③③口 |②---|
口②口口 |③---|
口①口口 |----|
8
口口口口 |①---|
口口口口 |②---|
①②③④ |③---|
口口口口 |④---|
9
口口口口 |①---|
①②③④ |②---|
口口口口 |③---|
口口口口 |④---|
10
口口口口 |①---|
口③③口 |②---|
口口②口 |③---|
口口①口 |----|
11
口口口口 |①---|
口③③口 |②---|
口②口口 |③---|
口①口口 |----|
12
口口口口 |①---|
口口口口 |②---|
①②③④ |③---|
口口口口 |④---|
13
口口口口 |①---|
①②③④ |②---|
口口口口 |③---|
口口口口 |④---|
14
口口口口 |①---|
口②②口 |----|
口①①口 |②---|
口口口口 |----|
15
口③③口 |①---|
口口②口 |②---|
口口①口 |③---|
口口口口 |----|
16
口③③口 |①---|
口②口口 |②---|
口①口口 |③---|
口口口口 |----|
17
口③③口 |①---|
口口②口 |②---|
口口①口 |③---|
口口口口 |----|
18
口③③口 |①---|
口②口口 |②---|
口①口口 |③---|
口口口口 |----|
19
口口口口 |①---|
口口口口 |----|
口②①口 |②---|
口口口口 |----|
20
口口口口 |①---|
④③②① |②---|
口口口口 |③---|
口口口口 |④---|
21
口口口口 |①---|
口口口口 |----|
口①②口 |②---|
口口口口 |----|
22
口口口口 |①---|
①②③④ |②---|
口口口口 |③---|
口口口口 |④---|
23
口口口口 |①---|
口口口口 |----|
③②①③ |②---|
口口口口 |③---|
24
口口口口 |①---|
④③②① |②---|
口口口口 |③---|
口口口口 |④---|
25
口口口口 |①---|
口口口口 |----|
口①②口 |②---|
口口口口 |----|
26
口口口口 |①---|
①②③④ |②---|
口口口口 |③---|
口口口口 |④---|
27
口②①口 |①---|
口口口口 |----|
口口口口 |②---|
口口口口 |----|
28
口口口口 |①---|
口②①口 |----|
口口口口 |②---|
口口口口 |----|
29
口口口口 |①---|
口口口口 |----|
口②①口 |②---|
口口口口 |----|
30
口口口口 |①---|
①②③④ |②---|
口口口口 |③---|
口口口口 |④---|
31
口①口口 |①---|
②口口口 |②---|
③口口口 |③---|
口④口口 |④---|
32
口口④口 |①---|
口口口③ |②---|
口口口② |③---|
口口①口 |④---|
33
口①口口 |①---|
②口口口 |②---|
③口口口 |③---|
口④口口 |④---|
34
口口④口 |①---|
口口口③ |②---|
口口口② |③---|
口口①口 |④---|
35
口口口口 |①---|
口口口口 |----|
口②①口 |②---|
口口口口 |----|
36
口口口口 |①---|
口②①口 |----|
口口口口 |②---|
口口口口 |----|
37
口口口口 |①---|
口口口口 |----|
口②①口 |②---|
口口口口 |----|
38
口口口口 |①---|
口①①口 |----|
口②②口 |②---|
口口口口 |----|
39
口口口口 |①---|
口①①口 |----|
口②②口 |②---|
口口口口 |----|
40
口口口口 |----|
①口口① |①---|
②口口② |②---|
③口口③ |③---|
41
口口口口 |①---|
口③③口 |②---|
口口②口 |③---|
口口①口 |----|
42
口口口口 |①---|
口③③口 |②---|
口②口口 |③---|
口①口口 |----|
43
口口口口 |①---|
口口口口 |②---|
①②③④ |③---|
口口口口 |④---|
44
口口口口 |①---|
①②③④ |②---|
口口口口 |③---|
口口口口 |④---|
45
口口口口 |①---|
口③③口 |②---|
口口②口 |③---|
口口①口 |----|
46
口口口口 |①---|
口③③口 |②---|
口②口口 |③---|
口①口口 |----|
47
口口口口 |①---|
口口口口 |②---|
①②③④ |③---|
口口口口 |④---|
48
口口口口 |①---|
①②③④ |②---|
口口口口 |③---|
口口口口 |④---|
49
口口口口 |①---|
口②②口 |----|
口①①口 |②---|
口口口口 |----|
50
口口口口 |①---|
②口口② |----|
①口口① |②---|
口口口口 |----|
51
口口③③ |①---|
口口口② |②---|
口口口① |③---|
口口口口 |----|
52
③③口口 |①---|
②口口口 |②---|
①口口口 |③---|
口口口口 |----|
53
口口③③ |①---|
口口口② |②---|
口口口① |③---|
口口口口 |----|
54
③③口口 |①---|
②口口口 |②---|
①口口口 |③---|
口口口口 |----|
55
口口③③ |①---|
口口口② |②---|
口口口① |③---|
口口口口 |----|
56
③③口口 |①---|
②口口口 |②---|
①口口口 |③---|
口口口口 |----|
57
口口③③ |①---|
口口口② |②---|
口口口① |③---|
口口口口 |----|
58
③③口口 |①---|
②口口口 |②---|
①口口口 |③---|
口口口口 |----|
59
口口口口 |①---|
口②②口 |----|
口①①口 |②---|
口口口口 |----|
60
口口口口 |①---|
口②②口 |----|
口①①口 |②---|
口口口口 |----|


不確定度: 0

最終更新:2014年02月17日 17:54