恋はどう?モロ◎波動OK☆方程式!!
あべにゅぅぷろじぇくと feat.佐倉紗織 produced by ave;new

ADVANCED

Level: 8
BPM: 128
Notes: 653

1
口口口口 |----|
口口口口 |----|
口口口口 |----|
口口口口 |----|
2
口口口口 |①-②-|
口①②③ |③--④|
口⑥口③ |-⑤-⑥|
口⑥⑤④ |----|
3
①⑤①⑤ |①---|
口口口口 |②---|
④口④口 |③-④-|
③②③② |⑤---|
4
①⑤①⑤ |①-②-|
口口口口 |③④-⑤|
口④口④
③②③②

口口口口
⑥⑥口口
口口⑦⑦ |----|
口口口口 |⑥-⑦-|
5
口口④口 |①---|
口③①④ |②---|
②①③口 |③---|
口②口口 |④---|
6
②②口口 |①---|
口口口口 |②--③|
口口口③
①①口③

口口口口
口口口口
口口口口 |----|
口④④口 |--④-|
7
③①①② |①-②③|
⑤口口④ |④⑤⑥⑦|
⑦口口⑥ |----|
口口⑧⑧ |--⑧-|
8
口口①① |①-②③|
⑨⑧③② |④⑤⑥⑦|
④⑤⑦⑥ |-⑧-⑨|
⑨⑧⑩⑩ |--⑩-|
9
①①口⑤ |①---|
⑤口②口 |②③④⑤|
口③④口
口口口口

⑧口口口
口口口⑥
⑥口口⑦ |-⑥-⑦|
⑦口口⑧ |-⑧--|
10
③④④③ |①---|
口口⑤口 |②--③|
口②②口 |----|
口①①口 |-④-⑤|
11
口口口口 |①-②③|
⑤⑧⑧④ |④⑤⑥⑦|
③①⑥② |----|
口⑦口口 |--⑧-|
12
④⑤③② |①--②|
口口⑥口 |③④⑤⑥|
口①①口
口口口口

口口口口
⑪口口⑩
⑧口⑫⑦ |-⑦⑧⑨|
口口⑨口 |-⑩⑪⑫|
13
口口口口 |①-②-|
口口⑤口 |③-④⑤|
③①口②
③口④②

口口口口
口⑧口口
⑩口⑦⑨ |-⑥⑦⑧|
口⑥口口 |-⑨⑩-|
14
⑤①①⑤ |①-②③|
②④④② |--④-|
⑥口口⑥ |⑤⑥--|
③口口③ |----|
15
⑥⑥⑤⑤ |①②③④|
⑨⑧口⑦ |⑤-⑥⑦|
口④③口 |-⑧⑨-|
口②①口 |----|
16
口口⑤⑤ |①②③④|
口⑥口口 |⑤-⑥-|
口④③口
口②①口

口口⑫⑫
口口口⑦
⑧⑪口口 |⑦⑧⑨-|
口口⑩⑨ |⑩⑪⑫-|
17
①口口③ |--①-|
①口④③ |--②-|
⑤口口② |--③-|
⑤口口② |-④⑤-|
18
口①①口 |①-②-|
口口口口 |③④-⑤|
口④③口
⑤②②⑤

口口口口
⑥⑥口口
口口⑦⑦ |----|
口口口口 |⑥-⑦-|
19
口③口② |--①-|
口口④① |②-③④|
口⑥⑤⑦ |----|
口口口口 |-⑤⑥⑦|
20
口③⑧② |①-②-|
口⑦④口 |③④-⑤|
①口⑥口 |---⑥|
口⑤口口 |⑦⑧--|
21
口口口① |--①-|
口③②⑧ |②③④⑤|
⑦⑤④⑥ |----|
口口口口 |-⑥⑦⑧|
22
口口②② |①-②-|
①④口口 |③④-⑤|
口口③口
口⑤口口

口口口口
⑧口口⑦
⑩口口⑨ |--⑥-|
口口⑥⑥ |⑦⑧⑨⑩|
23
口口口口 |--①②|
口②①口 |③④-⑤|
口④③口
口口口⑤

⑥⑦口⑥
口口⑧口
口口口口 |----|
口口口口 |⑥-⑦⑧|
24
口口口口 |--①②|
口口口口 |③④⑤⑥|
④②①③ |----|
⑦⑥⑤⑦ |---⑦|
25
⑥口口① |--①-|
⑧③②⑦ |②③④⑤|
⑩⑤④⑨ |---⑥|
口口口口 |⑦⑧⑨⑩|
26
口口⑤口 |-①②③|
口⑥口口 |④-⑤⑥|
口④③口
口②①口

⑦口口⑦
口口口口
口口⑧口 |----|
口口口口 |⑦-⑧-|
27
口①②口 |①-②-|
⑥④③⑤ |③④⑤⑥|
⑪⑧⑦口 |-⑦⑧⑨|
口口⑨⑩ |--⑩⑪|
28
口⑦口口 |①-②③|
口③⑥口 |-④-⑤|
口口②① |-⑥⑦-|
口⑤④口 |----|
29
口口口① |①-②③|
口③②口 |④⑤⑥⑦|
口⑤④口
口⑦⑥口

口口口口
⑨口口⑧
⑪口⑭⑩ |-⑧⑨⑩|
⑬口口⑫ |⑪⑫⑬⑭|
30
口口④口 |①②③④|
⑥③②⑤ |-⑤⑥⑦|
口①口⑦
口口口口

⑫口口⑫
口口口口
口⑪⑩口 |-⑧⑨⑩|
口⑨⑧口 |⑪-⑫-|
31
口⑥⑤口 |①②③④|
②⑧⑦① |⑤⑥⑦⑧|
④口口③
口口口口

⑩口口⑨
⑫口口⑪
⑭口口⑬ |⑨⑩⑪⑫|
⑭口口⑬ |⑬-⑭-|
32
口②①口 |①②③④|
口④③口 |⑤⑥⑦⑧|
口⑥⑤口
口⑧⑦口

⑩⑫⑪⑨
⑭⑯⑮⑬
口口口口 |⑨⑩⑪⑫|
口口口口 |⑬⑭⑮⑯|
33
口口口口 |-①②③|
口口口口 |④-⑤-|
口④③口
⑤②①口

口⑦⑥口
口口⑧口
口⑩⑨口 |⑥⑦⑧-|
口口⑪口 |⑨⑩⑪-|
34
③⑦⑥② |①-②③|
⑤口口④ |④⑤⑥⑦|
口口口①
口口口①

口口口口
口⑨⑧口
⑬⑪⑩⑫ |⑧⑨⑩⑪|
⑬口口⑫ |⑫-⑬-|
35
②④③① |①-②-|
口口口口 |③-④-|
口口口口
口口口口

口口⑧口
口⑤⑤口
口⑥⑥口 |⑤-⑥-|
⑦口口⑦ |⑦-⑧-|
36
口口口① |①-②-|
③②口① |③-④-|
③④④口
口口口口

口⑤⑤口
口⑦⑦口
口口口口 |⑤-⑥-|
口⑥⑥口 |⑦---|
37
①口口① |①-②-|
②口口② |③-④-|
④口口④
③口口③

口口口口
⑦⑤⑤⑦
口⑥⑥口 |⑤-⑥-|
口口⑧口 |⑦-⑧-|
38
口口口口 |①-②-|
口②②口 |③-④-|
④⑤⑤① |⑤---|
④③口① |----|
39
③③①① |①-②-|
口口口口 |③-④-|
④④②②
口口口口

口口口口
⑥⑥口口
口口⑦⑦ |⑤---|
口⑤⑤口 |⑥-⑦-|
40
口口③口 |----|
口②口③ |①---|
①口②口 |②---|
口①口口 |③---|
41
②②口口 |①---|
口口口口 |②--③|
口口口③
①①口③

口口口口
口口口口
口口口口 |----|
口④④口 |--④-|
42
③①①② |①-②③|
⑤口口④ |④⑤⑥⑦|
⑦口口⑥ |----|
口口⑧⑧ |--⑧-|
43
口口①① |①-②③|
口口③② |④⑤⑥⑦|
④⑤⑦⑥
口口口口

⑪⑩⑩⑪
口口口口
口口口口 |-⑧⑨-|
口⑧⑨口 |⑩-⑪-|
44
口口口⑥ |①-②-|
⑥口③口 |③④⑤⑥|
口④⑤①
②②口①

⑨口口口
口口口⑦
⑦口口⑧ |-⑦-⑧|
⑧口口⑨ |-⑨--|
45
③④口③ |①---|
口⑥⑤口 |②--③|
口②②口 |----|
口①①口 |-④⑤⑥|
46
口口口口 |①②③④|
⑥⑨⑨⑤ |⑤⑥⑦⑧|
②口⑦① |----|
④⑧口③ |--⑨-|
47
口②②⑤ |①-②-|
口口口口 |③-④⑤|
口①①④
口③③口

口口口口
口⑦⑥⑧
口⑨⑨口 |-⑥⑦⑧|
口口口口 |--⑨-|
48
口①①② |①-②③|
③口⑥⑥ |④⑤-⑥|
口口口④
⑤口口口

口口口口
口⑨口口
⑪口⑧⑩ |-⑦⑧⑨|
口⑦口口 |-⑩⑪-|
49
⑤①①⑤ |①-②③|
②④④② |--④-|
⑥口口⑥ |⑤⑥--|
③口口③ |----|
50
⑤①①⑤ |①-②③|
②④④② |--④-|
⑥口口⑥ |⑤⑥--|
③口口③ |----|
51
口⑥⑦口 |①-②③|
①①③④ |-④-⑤|
②⑧口口 |-⑥⑦⑧|
⑤⑤③④ |----|
52
口⑦⑥口 |①-②③|
④③①① |-④-⑤|
口口⑧② |-⑥⑦⑧|
④③⑤⑤ |----|
53
口⑥⑦口 |①-②③|
①①③④ |-④-⑤|
②⑧口口 |-⑥⑦⑧|
⑤⑤③④ |----|
54
口⑦⑥口 |①-②③|
④③①① |-④-⑤|
口口⑧② |-⑥⑦⑧|
④③⑤⑤ |----|
55
口⑥⑦口 |①-②③|
①①③④ |-④-⑤|
②⑧口口 |-⑥⑦⑧|
⑤⑤③④ |----|
56
口⑦⑥口 |①-②③|
④③①① |-④-⑤|
口口⑧② |-⑥⑦⑧|
④③⑤⑤ |----|
57
口⑥⑦口 |①-②③|
①①③④ |-④-⑤|
②⑧口口 |-⑥⑦⑧|
⑤⑤③④ |----|
58
口⑦⑥口 |①-②③|
④③①① |-④-⑤|
口口⑧② |-⑥⑦⑧|
④③⑤⑤ |----|
59
④④④④ |--①②|
口③②① |③-④-|
口口口口 |----|
口口口口 |----|
60
口①①口 |----|
口①口口 |----|
口①①口 |①---|
口口口口 |----|


不確定度: 0

最終更新:2014年02月17日 17:53