Snowfield Express
TIME CAPSULE Lab.

BASIC

Level: 4
BPM: 188
Notes: 220

1
口口口口 |----|
口口口口 |----|
口口口口 |----|
口口口口 |----|
2
口口口口 |----|
口口口口 |----|
口口口口 |----|
口口口口 |----|
3
口①①口 |①---|
口口口口 |----|
口口口口 |----|
口口口口 |----|
4
口口口口 |----|
口口口口 |----|
口口口口 |----|
口口口口 |----|
5
口口口口 |①---|
口①①口 |----|
口口口口 |----|
口口口口 |----|
6
口口口口 |----|
口口口口 |----|
口口口口 |----|
口口口口 |----|
7
口口口口 |①---|
口口口口 |----|
口①①口 |----|
口口口口 |----|
8
口口口口 |----|
口口口口 |----|
口口口口 |----|
口口口口 |----|
9
口口口口 |①---|
口口口口 |----|
口口口口 |----|
口①①口 |----|
10
口口口口 |----|
口口口口 |----|
口口口口 |----|
口口口口 |----|
11
①口口② |①---|
口口口口 |----|
口口口口 |----|
口口口口 |--②-|
12
口口口口 |----|
口口口口 |----|
口口口口 |----|
口口口口 |----|
13
口口口口 |①---|
①口口② |----|
口口口口 |----|
口口口口 |--②-|
14
口口口口 |----|
口口口口 |----|
口口口口 |----|
口口口口 |----|
15
口口口口 |①---|
口口口口 |----|
①口口② |----|
口口口口 |--②-|
16
口口口口 |----|
口口口口 |----|
口口口口 |----|
口口口口 |----|
17
口口口口 |①---|
口口口口 |----|
口口口口 |----|
①口口② |--②-|
18
口口口口 |----|
口口口口 |----|
口口口口 |----|
口口口口 |----|
19
口口口口 |①---|
①②③④ |②---|
口口口口 |③---|
口口口口 |④---|
20
口口口口 |①---|
口口口口 |②---|
口①②口 |----|
口口口口 |----|
21
口口口口 |①---|
口口口口 |----|
口口口口 |----|
①①②② |②---|
22
口口口口 |----|
口口口口 |----|
口①②口 |①---|
口口口口 |②---|
23
口口口口 |①---|
①②③④ |②---|
口口口口 |③---|
口口口口 |④---|
24
口①②口 |①---|
口口口口 |②---|
口口口口 |----|
口口口口 |----|
25
口口③② |①---|
口口口口 |----|
口①口口 |②---|
口口口口 |③---|
26
②①口口 |①---|
口④③口 |②---|
口口口口 |③---|
口口口口 |④---|
27
口口口口 |①---|
口口口口 |②---|
④③②① |③---|
口口口口 |④---|
28
口口口口 |①---|
口②①口 |②---|
口口口口 |----|
口口口口 |----|
29
口口口口 |①---|
口口口口 |----|
口口口口 |----|
②②①① |②---|
30
口口口口 |----|
口口口口 |----|
口②①口 |①---|
口口口口 |②---|
31
口口口口 |----|
口口口口 |①---|
口口口口 |②---|
①②③口 |③---|
32
口口口口 |①---|
口口口口 |②---|
口②③口 |③---|
口口口① |----|
33
①口口① |①---|
②口口② |----|
口口口口 |----|
口口口口 |②---|
34
口口口口 |----|
口口口口 |----|
口口口口 |----|
口口口口 |----|
35
①①口口 |①---|
口口口口 |----|
口口口口 |----|
口口口口 |----|
36
口口①① |①---|
口口口口 |----|
口口口口 |----|
口口口口 |----|
37
口口口口 |①---|
①①口口 |----|
口口口口 |----|
口口口口 |----|
38
口口口口 |①---|
口口①① |----|
口口口口 |②---|
口②③口 |③---|
39
口③③口 |①---|
口②口口 |--②-|
口①口口 |----|
口口口口 |③---|
40
口口口口 |----|
口口口口 |----|
口口口口 |----|
口口口口 |----|
41
口③③口 |①---|
口口②口 |--②-|
口口①口 |----|
口口口口 |③---|
42
口口口口 |----|
①口口② |----|
口口口口 |①---|
口口口口 |②---|
43
口①②口 |①---|
口口口口 |----|
口口口口 |----|
口口口口 |②---|
44
口口口口 |----|
口①②口 |----|
口口口口 |①---|
口口口口 |②---|
45
口口口口 |①---|
口口口口 |②---|
口口口口 |----|
口①②口 |----|
46
口口口口 |----|
口口口口 |----|
口口口口 |①---|
①口口② |②---|
47
③③口口 |①---|
②口口口 |--②-|
①口口口 |----|
口口口口 |③---|
48
口口口口 |----|
口口口口 |----|
口口口口 |----|
口口口口 |----|
49
口口③③ |①---|
口口口② |--②-|
口口口① |----|
口口口口 |③---|
50
口口口口 |----|
口口口口 |----|
口口口口 |----|
口口口口 |----|
51
③③口口 |①---|
口②口口 |--②-|
口①口口 |----|
口口口口 |③---|
52
口口口口 |----|
口口口口 |----|
口口口口 |----|
口口口口 |----|
53
口口③③ |①---|
口口②口 |--②-|
口口①口 |----|
口口口口 |③---|
54
口口口口 |----|
口①②口 |----|
口口口口 |①---|
口口口口 |②---|
55
口口口口 |①---|
口口口口 |----|
口③③口 |②---|
①口口② |--③-|
56
②口口② |--①-|
口①①口 |--②-|
口口口口 |----|
口口口口 |----|
57
口①①口 |①---|
②③口口 |----|
口口口口 |②---|
口口口口 |③---|
58
③口口④ |①---|
口口①② |②---|
口口口口 |③---|
口口口口 |④---|
59
口口口口 |①---|
口①②口 |②---|
口③④口 |③---|
口口口口 |④---|
60
口口口口 |①---|
口口口口 |----|
口口口口 |②---|
①②②口 |----|
61
口口口口 |①---|
口口口口 |②---|
④③②① |③---|
口口口口 |④---|
62
口口口口 |①---|
口口口口 |②---|
口④③口 |③---|
口②①口 |④---|
63
②口口② |①---|
①③③① |--②-|
口口口口 |----|
口口口口 |③---|
64
③①①② |--①-|
③口口② |----|
口口口口 |②---|
口口口口 |③---|
65
口②③口 |①---|
口①①口 |----|
口口口口 |②---|
口口口口 |③---|
66
①口口口 |①---|
口口③② |----|
口口口口 |②---|
口口口口 |③---|
67
口口口口 |①---|
②①口口 |②---|
口④③口 |③---|
口口口口 |④---|
68
口口口口 |①---|
口口口口 |----|
①口口口 |②---|
口②③口 |③---|
69
口口口口 |①---|
口口口口 |----|
口②③口 |②---|
口口口① |③---|
70
口口口口 |①---|
口①口口 |----|
口口口口 |----|
口口口口 |----|
71
②②口口 |①---|
口口口口 |--②-|
①口口③ |----|
口口口口 |③---|
72
口口①① |--①-|
③口口③ |----|
口口口口 |②---|
口②②口 |--③-|
73
口口口口 |----|
口口口口 |----|
口口口口 |----|
口口口口 |----|
74
口口口口 |----|
口口口口 |----|
口口口口 |----|
口口口口 |----|
75
口①①口 |①---|
口口口口 |----|
口口口口 |----|
口口口口 |----|
76
口口口口 |----|
口口口口 |----|
口口口口 |----|
口口口口 |----|
77
口口口口 |①---|
口①①口 |----|
口口口口 |----|
口口口口 |----|
78
口口口口 |----|
口口口口 |----|
口口口口 |----|
口口口口 |----|
79
口口口口 |①---|
口口口口 |----|
口①①口 |----|
口口口口 |----|
80
口口口口 |----|
口口口口 |----|
口口口口 |----|
口口口口 |----|
81
口口口口 |①---|
口口口口 |----|
口口口口 |----|
口①①口 |----|
82
口口口口 |----|
口口口口 |----|
口口口口 |----|
口口口口 |----|
83
口口口口 |①---|
口口口口 |②---|
口③④口 |③---|
①口口② |④---|
84
口③④口 |①---|
①口口② |②---|
口口口口 |③---|
口口口口 |④---|
85
①口口② |①---|
口③④口 |②---|
口口口口 |③---|
口口口口 |④---|
86
口口口口 |①---|
口口口口 |②---|
①口口② |③---|
口③④口 |④---|
87
口口口口 |①---|
口口口口 |②---|
口③④口 |③---|
①口口② |④---|
88
口③④口 |①---|
①口口② |②---|
口口口口 |③---|
口口口口 |④---|
89
①口口② |①---|
口③④口 |②---|
口口口口 |③---|
口口口口 |④---|
90
口口口口 |①---|
口口口口 |②---|
①口口② |③---|
口③④口 |④---|


不確定度: 0

最終更新:2014年02月17日 17:53