Snowfield Express
TIME CAPSULE Lab.

ADVANCED

Level: 6
BPM: 188
Notes: 392

1
口口口口 |----|
口口口口 |----|
口口口口 |----|
口口口口 |----|
2
口口口口 |----|
口口口口 |----|
口口口口 |----|
口口口口 |----|
3
口口口① |①---|
口口口口 |--②-|
口②口口 |----|
口口口口 |----|
4
口口口口 |----|
口口口口 |----|
口口口口 |----|
口口口口 |----|
5
口②口口 |①---|
口口③口 |--②-|
①口口口 |----|
口口口口 |③---|
6
口口口口 |----|
口口口口 |----|
口口口① |--①-|
口口口口 |----|
7
口口口口 |①---|
口口口口 |--②-|
口口口口 |----|
口①口② |----|
8
口口口口 |----|
口①口口 |----|
口口口口 |--①-|
口口口口 |----|
9
②口口口 |①---|
口口口口 |--②-|
口口①口 |----|
口口口口 |----|
10
口口口口 |----|
口口口口 |----|
口口口口 |----|
口口口口 |----|
11
①②③口 |--①-|
口⑥⑤④ |②-③-|
口口口口 |--④-|
口口口口 |⑤-⑥-|
12
口口口口 |--①-|
口口口口 |②-③-|
⑦⑥⑤④ |④-⑤-|
①②③口 |⑥-⑦-|
13
口③②① |--①-|
④⑤⑥口 |②-③-|
口口口口 |--④-|
口口口口 |⑤-⑥-|
14
口口口口 |--①-|
口口口口 |②-③-|
④⑤⑥⑦ |④-⑤-|
口③②① |⑥-⑦-|
15
①②③口 |--①-|
口⑥⑤④ |②-③-|
口口口口 |--④-|
口口口口 |⑤-⑥-|
16
口口口口 |--①-|
口口口口 |②-③-|
⑦⑥⑤④ |④-⑤-|
①②③口 |⑥-⑦-|
17
口③②① |--①-|
④⑤⑥口 |②-③-|
口口口口 |--④-|
口口口口 |⑤-⑥-|
18
口口口口 |--①-|
口口口口 |②-③-|
④⑤⑥⑦ |④-⑤-|
口③②① |⑥-⑦-|
19
①口④口 |--①-|
口③②口 |--②-|
口口口口 |③-④-|
口口口⑤ |--⑤-|
20
口口口口 |--①-|
⑥口口口 |②-③-|
口①②⑤ |--④-|
④③口口 |⑤-⑥-|
21
口②口① |①---|
口口③口 |--②-|
口口口口 |----|
口口口口 |③---|
22
口口口口 |--①-|
口口口口 |----|
口①口口 |②---|
口③②口 |③---|
23
口⑥口① |--①-|
口④⑤口 |--②-|
口②③口 |③-④-|
口口口口 |⑤-⑥-|
24
口口口口 |--①-|
口⑥口① |②-③-|
②口⑤口 |--④-|
口④口③ |⑤-⑥-|
25
口口③① |①---|
④口口口 |--②-|
②口口⑤ |③-④-|
⑥口口口 |⑤-⑥-|
26
口口口口 |--①-|
口口①口 |②-③-|
口②口口 |--④-|
口④③口 |----|
27
①口口口 |--①-|
口口②口 |--②-|
⑤③口口 |③-④-|
口口④口 |--⑤-|
28
口⑥①口 |①-②-|
口②口⑤ |③-④-|
口口③口 |--⑤-|
口④口口 |--⑥-|
29
口口①口 |①---|
口口口口 |②-③-|
口②③口 |--④-|
口④⑤口 |⑤---|
30
口口②口 |----|
口③口口 |--①-|
①口④口 |②-③-|
口⑤口口 |④-⑤-|
31
⑥口口⑤ |----|
④口口③ |①-②-|
②口口① |③-④-|
口口口口 |⑤-⑥-|
32
口口口口 |①-②-|
口④③口 |③-④-|
口②①口 |----|
口⑥⑤口 |⑤-⑥-|
33
口口口① |①-②-|
②⑥⑤口 |③-④-|
口口口③ |--⑤-|
④口口口 |⑥---|
34
口口口口 |----|
口口口口 |----|
口口口口 |----|
口口口口 |----|
35
口口口口 |①-②-|
口口口口 |③-④-|
口⑤⑥口 |--⑤-|
①②③④ |--⑥-|
36
①②③④ |①-②-|
口⑤⑥口 |③-④-|
口口口口 |--⑤-|
口口口口 |--⑥-|
37
口口口口 |①-②-|
口口口口 |③-④-|
口⑤⑥口 |--⑤-|
①②③④ |--⑥-|
38
①②③④ |①-②-|
口口口口 |③-④-|
口口口口 |----|
口口口口 |----|
39
口口口口 |①---|
①③③② |--②-|
①③③② |----|
口口口口 |③---|
40
口口口口 |----|
口口口口 |----|
口口口口 |----|
口口口口 |----|
41
口口口口 |①---|
口③③口 |--②-|
口③③口 |----|
①①②② |③---|
42
口口口口 |----|
口口口口 |----|
①口口② |①---|
口口口口 |②---|
43
①口口口 |①---|
③口口② |--②-|
口口口口 |----|
口口口口 |③---|
44
口口口口 |--①-|
口口口口 |----|
口②③① |②---|
口口口口 |③---|
45
口口口口 |①---|
口②③口 |②-③-|
口口口口 |----|
口①①口 |----|
46
口口口口 |----|
口口口口 |----|
口口口口 |----|
口口口口 |----|
47
口口口口 |①---|
①③③② |--②-|
①③③② |----|
口口口口 |③---|
48
口口口口 |----|
口口口口 |----|
口口口口 |----|
口口口口 |----|
49
口口口口 |①---|
口③③口 |--②-|
口③③口 |----|
①①②② |③---|
50
口口口口 |----|
①口口② |----|
口口口口 |①---|
口口口口 |②---|
51
②②口口 |①---|
③③口口 |--②-|
口口口口 |----|
口口①口 |③---|
52
口口口口 |----|
口口口口 |----|
口口口口 |----|
口口口口 |----|
53
口口②② |①---|
口口③③ |--②-|
口口口口 |----|
口①口口 |③---|
54
口①②口 |----|
口口口口 |----|
口口口口 |①---|
口口口口 |②---|
55
⑦口口⑦ |①-②-|
口口口口 |③-④-|
口⑤⑥口 |⑤-⑥-|
①②③④ |--⑦-|
56
口口口口 |--①-|
①口⑤① |--②-|
②④口② |--③-|
口口③口 |④-⑤-|
57
口①口口 |①---|
口④⑤口 |--②-|
口口口口 |--③-|
②口口③ |④-⑤-|
58
口口口① |----|
口②口口 |--①-|
口口③口 |--②-|
口④口口 |③-④-|
59
口口口口 |----|
③口口③ |--①-|
②口口② |--②-|
①口口① |--③-|
60
口口口口 |----|
③口口③ |--①-|
口①②口 |②---|
口口口口 |③---|
61
①④口① |①---|
口口⑤口 |--②-|
口口口口 |--③-|
口②③口 |④-⑤-|
62
口口口口 |----|
口口口口 |--①-|
口①①③ |----|
②口口口 |②-③-|
63
①②③④ |①-②-|
口口口口 |③-④-|
口口口口 |----|
口口⑥⑤ |⑤-⑥-|
64
口口口口 |①-②-|
口③③口 |----|
口④④口 |③---|
②①口口 |④---|
65
①①①① |①---|
②口口口 |--②-|
口口口口 |--③-|
⑤④③口 |④-⑤-|
66
口④口口 |----|
口②③口 |--①-|
口①口口 |--②-|
口口口口 |③-④-|
67
②口①② |①---|
③④口③ |--②-|
口口⑤口 |--③-|
口口口口 |④-⑤-|
68
口②①口 |----|
口口③口 |--①-|
口④口口 |--②-|
口口口口 |③-④-|
69
口口⑤口 |①---|
口④口口 |--②-|
口口③口 |--③-|
②口①口 |④-⑤-|
70
口口口口 |----|
口②③口 |--①-|
口①口口 |----|
口口口口 |②-③-|
71
①②③④ |①-②-|
口口口口 |③-④-|
口口口口 |----|
口口⑥⑤ |⑤-⑥-|
72
⑤口口④ |①-②-|
口③③口 |----|
⑤口口④ |③---|
②①口口 |④-⑤-|
73
口口口口 |----|
口口口口 |----|
口口口口 |----|
口口口口 |----|
74
口口口口 |----|
口口口口 |----|
口口口口 |----|
口口口口 |----|
75
口口口① |①---|
口口口口 |--②-|
口②口口 |----|
口口口口 |----|
76
口口口口 |----|
口口口口 |----|
口口口口 |----|
口口口口 |----|
77
口②口口 |①---|
口口③口 |--②-|
①口口口 |----|
口口口口 |③---|
78
口口口口 |----|
口口口口 |----|
口口口① |--①-|
口口口口 |----|
79
口口口口 |①---|
口口口口 |--②-|
口口口口 |----|
口①口② |----|
80
口口口口 |----|
口①口口 |----|
口口口口 |--①-|
口口口口 |----|
81
②口口口 |①---|
口口口口 |--②-|
口口①口 |----|
口口口口 |----|
82
口口口口 |----|
口口口口 |----|
口口口口 |----|
口口口口 |----|
83
①②③口 |--①-|
口⑥⑤④ |②-③-|
口口口口 |--④-|
口口口口 |⑤-⑥-|
84
口口口口 |--①-|
口口口口 |②-③-|
⑦⑥⑤④ |④-⑤-|
①②③口 |⑥-⑦-|
85
口③②① |--①-|
④⑤⑥口 |②-③-|
口口口口 |--④-|
口口口口 |⑤-⑥-|
86
口口口口 |--①-|
口口口口 |②-③-|
④⑤⑥⑦ |④-⑤-|
口③②① |⑥-⑦-|
87
①②③口 |--①-|
口⑥⑤④ |②-③-|
口口口口 |--④-|
口口口口 |⑤-⑥-|
88
口口口口 |--①-|
口口口口 |②-③-|
⑦⑥⑤④ |④-⑤-|
①②③口 |⑥-⑦-|
89
口③②① |--①-|
④⑤⑥口 |②-③-|
口口口口 |--④-|
口口口口 |⑤-⑥-|
90
②②①① |--①-|
⑥口口⑤ |②-③-|
④④③③ |④-⑤-|
⑥⑦⑦⑤ |⑥-⑦-|


不確定度: 0

最終更新:2014年02月17日 17:53