アルストロメリア
TAG

BASIC

Level: 5
BPM: 144
Notes: 356

1
口口口口 |----|
口口口口 |----|
口口口口 |----|
口口口口 |----|
2
口①①口 |①---|
口口口口 |----|
口口口口
口口口口

口②②口
口③③口
口口口口 |----|
口口口口 |-②-③|
3
口口口口 |----|
口①①口 |----|
口②②口 |----|
口口口口 |-①-②|
4
口口口口 |----|
口口口口 |----|
①口口① |①---|
口②②口 |---②|
5
口口口口 |----|
①口口② |----|
口口口口 |①---|
口口口口 |②---|
6
口①①口 |①---|
口口口口 |----|
口口口口
口口口口

口②②口
口③③口
口口口口 |----|
口口口口 |-②-③|
7
口口口口 |----|
口①①口 |----|
口②②口 |----|
口口口口 |-①-②|
8
口口口口 |----|
口②②口 |----|
①口口① |①---|
口口口口 |---②|
9
口口口口 |----|
口口口口 |----|
口口口口 |----|
口口口口 |----|
10
口口口口 |①--②|
①②③口 |--③-|
口口口口 |----|
口口口口 |----|
11
口口口口 |--①-|
口口口口 |-②--|
④③②① |③--④|
口口口口 |----|
12
口口口口 |①--②|
①②③口 |--③-|
口口口口 |----|
口口口口 |----|
13
口口口口 |--①-|
口口口口 |-②--|
④③②① |③--④|
口口口口 |----|
14
口口口口 |①--②|
①②③⑥ |--③-|
口口口⑤ |--④-|
口口口④ |⑤-⑥-|
15
口②口口 |①-②③|
口①③口 |-④-⑤|
⑥口④口 |----|
口口⑤口 |--⑥-|
16
口②口口 |①--②|
①⑥③口 |--③-|
口④口口 |④--⑤|
口⑤口口 |---⑥|
17
口口口口 |----|
口口口口 |----|
口③②① |--①-|
口口口口 |②-③-|
18
口口②口 |①--②|
口①④口 |--③-|
口口③口 |----|
口口口口 |--④-|
19
口口口口 |----|
口③口口 |--①-|
②⑤④口 |②-③-|
口①口口 |④-⑤-|
20
口口口口 |①--②|
口口②口 |--③-|
口④口① |----|
口口③口 |--④-|
21
口口口口 |①---|
口口口口 |----|
口④①口 |--②-|
口②③口 |③-④-|
22
②口口③ |①---|
④⑥口⑤ |--②-|
口口①口 |③-④-|
口口口口 |⑤-⑥-|
23
口口口口 |--①-|
口③④口 |--②-|
口口②口 |----|
口口①口 |③--④|
24
口口口口 |----|
口口口口 |--①-|
⑤③④口 |②-③-|
口①②口 |④-⑤-|
25
口口口口 |①--②|
口④口口 |--③-|
口口③① |④---|
口②口口 |----|
26
⑥③④⑥ |①---|
口②⑤口 |--②-|
口①①口 |③-④-|
口口口口 |⑤-⑥-|
27
口口口口 |----|
口口口口 |----|
口①②口 |----|
口口口口 |①--②|
28
口④口口 |----|
口口③口 |--①-|
口②口口 |②-③-|
口⑤①口 |④-⑤-|
29
口口口口 |①--②|
①口口② |--③-|
口⑤口口 |④---|
口④③口 |--⑤-|
30
口口口口 |①--②|
口①②口 |--③-|
③口口口
口口口口

口口口口
口⑤⑤口
口口口④ |④---|
口口口口 |---⑤|
31
口口口口 |----|
口口口口 |----|
口口口口 |----|
口口口口 |----|
32
口①口口 |①--②|
⑥③②⑥ |--③-|
⑤口④⑤ |-④--|
口口口口 |⑤-⑥-|
33
口口①口 |①--②|
⑥②③⑥ |--③-|
⑤④口⑤ |-④--|
口口口口 |⑤-⑥-|
34
口①口口 |①--②|
⑥③②⑥ |--③-|
⑤口④⑤ |-④--|
口口口口 |⑤-⑥-|
35
口口口口 |①---|
口口口口 |--②-|
口①②口 |----|
口口口口 |----|
36
口①口口 |①--②|
⑥③②⑥ |--③-|
⑤口④⑤ |-④--|
口口口口 |⑤-⑥-|
37
口口①口 |①--②|
⑥②③⑥ |--③-|
⑤④口⑤ |-④--|
口口口口 |⑤-⑥-|
38
口①口口 |①--②|
口口②⑥ |--③-|
口③口⑤ |-④--|
口口④口 |⑤-⑥-|
39
口②口口 |①--②|
①口③口 |--③-|
口④④口 |④---|
口口口口 |----|
40
②口口① |①---|
②口口① |----|
口口口口 |②---|
口口口口 |----|
41
口②①口 |①---|
口②①口 |----|
口口口口 |②---|
口口口口 |----|
42
②口口① |①---|
②口口① |----|
口口口口 |②---|
口口口口 |----|
43
口②①口 |①---|
口口①口 |----|
口②口口 |②---|
口口口口 |----|
44
②口口① |①---|
②口口① |----|
口口口口 |②---|
口口口口 |----|
45
口②①口 |①---|
口②①口 |----|
口口口口 |②---|
口口口口 |----|
46
②口口① |①---|
②口口① |----|
口口口口 |②---|
口口口口 |----|
47
口②①口 |①---|
口口口口 |----|
口②①口 |②---|
口口口口 |----|
48
③口口③ |①---|
口口口口 |--②-|
②口口② |----|
①口口① |---③|
49
口口口口 |----|
口口口口 |----|
口口口口 |----|
口口口口 |----|
50
口①口口 |①--②|
⑥③②⑥ |--③-|
⑤口④⑤ |-④--|
口口口口 |⑤-⑥-|
51
口口①口 |①--②|
⑥②③⑥ |--③-|
⑤④口⑤ |-④--|
口口口口 |⑤-⑥-|
52
口①口口 |①--②|
⑥③②⑥ |--③-|
⑤口④⑤ |-④--|
口口口口 |⑤-⑥-|
53
口口口口 |①---|
口口口口 |--②-|
口①②口 |----|
口口口口 |----|
54
口①口口 |①--②|
⑥③②⑥ |--③-|
⑤口④⑤ |-④--|
口口口口 |⑤-⑥-|
55
口口①口 |①--②|
⑥②③⑥ |--③-|
⑤④口⑤ |-④--|
口口口口 |⑤-⑥-|
56
口①口口 |①--②|
口口②⑥ |--③-|
口③口⑤ |-④--|
口口④口 |⑤-⑥-|
57
口②口口 |①--②|
①口③口 |--③-|
④口口④ |④---|
口口口口 |----|
58
口①口口 |①--②|
⑥③②⑥ |--③-|
⑤口④⑤ |-④--|
口口口口 |⑤-⑥-|
59
口口①口 |①--②|
⑥②③⑥ |--③-|
⑤④口⑤ |-④--|
口口口口 |⑤-⑥-|
60
口①口口 |①--②|
⑥③②⑥ |--③-|
⑤口④⑤ |-④--|
口口口口 |⑤-⑥-|
61
口口口口 |①---|
口口口口 |--②-|
口①②口 |----|
口口口口 |----|
62
口①口口 |①--②|
⑥③②⑥ |--③-|
⑤口④⑤ |-④--|
口口口口 |⑤-⑥-|
63
口口①口 |①--②|
⑥②③⑥ |--③-|
⑤④口⑤ |-④--|
口口口口 |⑤-⑥-|
64
口①口口 |①--②|
口口②⑥ |--③-|
口③口⑤ |-④--|
口口④口 |⑤-⑥-|
65
口②口口 |①--②|
①口③口 |--③-|
④④④④ |④---|
口口口口 |----|
66
口①①口 |①---|
口口口口 |----|
口口口口
口口口口

口②②口
口③③口
口口口口 |----|
口口口口 |-②-③|
67
口口口口 |----|
口①①口 |----|
口②②口 |----|
口口口口 |-①-②|
68
口口口口 |----|
口口口口 |----|
①口口① |①---|
口②②口 |---②|
69
口口口口 |----|
①口口② |----|
口口口口 |①---|
口口口口 |②---|
70
口①①口 |①---|
口口口口 |----|
口口口口
口口口口

口②②口
口③③口
口口口口 |----|
口口口口 |-②-③|
71
口口口口 |----|
口①①口 |----|
口②②口 |----|
口口口口 |-①-②|
72
口口口口 |----|
口②②口 |----|
①口口① |①---|
口口口口 |---②|


不确定度: 0

最終更新:2012年11月08日 18:17