サヨナラ・ヘヴン
猫叉Master

BASIC

Level: 3
BPM: 111
Notes: 193

1
口口口口 |----|
口口口口 |----|
口口口口 |----|
口①口口 |①---|
2
口口口口 |①---|
口口口口 |----|
口口口② |②---|
口口①口 |----|
3
口口口② |①---|
口口口① |----|
口口口口 |②---|
口③口口 |③---|
4
口口口口 |①---|
口③口口 |----|
②口口口 |②---|
口口①口 |③---|
5
口口①口 |①---|
口口口② |②---|
口口③口 |③---|
口④口口 |④---|
6
口口口口 |①---|
口口口口 |----|
口口口② |②---|
口口①口 |----|
7
口口口② |①---|
口口口① |----|
口口口口 |②---|
口③口口 |③---|
8
口口口口 |①---|
口③口口 |----|
②口口口 |②---|
口口①口 |③---|
9
②口①口 |①---|
口口口口 |----|
口口口口 |②---|
口口口口 |----|
10
口②口① |①---|
口口③口 |----|
口口口口 |②---|
口口口口 |③---|
11
口口口口 |①---|
口口口口 |----|
口①口口 |②---|
口口口② |----|
12
口口口口 |①---|
口口①口 |②---|
口②口口 |③---|
口④③口 |④---|
13
口口口口 |①---|
②口口口 |----|
口口①口 |②---|
口口口口 |----|
14
①口②口 |①---|
口③口口 |----|
口口口口 |②---|
口口口口 |③---|
15
口口口口 |①---|
口口口口 |----|
口口①③ |②---|
②口口口 |③---|
16
口口②口 |①---|
①③③口 |②---|
口口口口 |③---|
口口口口 |----|
17
口口口口 |①---|
②②口口 |----|
①口口口 |②---|
口口口口 |----|
18
口口①口 |①---|
口口口② |②---|
口口③口 |③---|
口口口④ |④---|
19
口口口口 |----|
口①口口 |----|
口口②口 |①---|
口口口口 |②---|
20
口口口口 |①---|
口口口口 |②---|
口③口口 |③---|
口①②口 |----|
21
口口口口 |①---|
口口②② |----|
口口口① |②---|
口口口口 |----|
22
口①口口 |①---|
②口口口 |②---|
口③口口 |③---|
④口口口 |④---|
23
口口口口 |----|
口口①口 |----|
口②口口 |①---|
口口口口 |②---|
24
口口口口 |①---|
口口口口 |②---|
口口③口 |③---|
口②①口 |----|
25
②②口口 |①---|
①①口口 |----|
口口口口 |②---|
口口口口 |----|
26
口口②② |①---|
口口①① |----|
口口口口 |②---|
口口口口 |----|
27
口口口口 |①---|
口①口口 |----|
口口②口 |②---|
口口口口 |----|
28
口口口口 |①---|
口口口口 |----|
口口口口 |----|
口①口口 |----|
29
②②口口 |①---|
①①口口 |----|
口口口口 |②---|
口口口口 |----|
30
口口②② |①---|
口口①① |----|
口口口口 |②---|
口口口口 |----|
31
口口口口 |①---|
口①口口 |----|
口口②口 |②---|
口口口口 |----|
32
口口口口 |①---|
口口口口 |----|
口口口口 |----|
口①口口 |----|
33
口口口口 |①---|
口①①口 |----|
口①①口
口口口口

口口口口
②口口②
②③③② |②---|
口口口口 |③---|
34
①①②② |①---|
口口口口 |----|
口口口口 |②---|
口口口口 |----|
35
口口口口 |①---|
①①②② |----|
口口口口 |②---|
口③③口 |③---|
36
口口③口 |①---|
口口口② |----|
①①口口 |②---|
口口口口 |③---|
37
口①口口 |①---|
②口口口 |②---|
③④口口 |③---|
口口口口 |④---|
38
②②①① |①---|
口口口口 |----|
口口口口 |②---|
口口口口 |----|
39
口口口口 |①---|
②②①① |----|
口口口口 |②---|
口③③口 |③---|
40
口③口口 |①---|
②口口口 |----|
口口①① |②---|
口口口口 |③---|
41
口口①口 |①---|
口口口② |②---|
口口④③ |③---|
口口口口 |④---|
42
①①②② |①---|
口口口口 |----|
口口口口 |②---|
口口口口 |----|
43
口口口口 |①---|
①①②② |----|
口口口口 |②---|
口③③口 |③---|
44
口口③口 |①---|
口口口② |----|
①①口口 |②---|
口口口口 |③---|
45
口①口口 |①---|
②口口口 |②---|
③④口口 |③---|
口口口口 |④---|
46
②②①① |①---|
口口口口 |----|
口口口口 |②---|
口口口口 |----|
47
口口口口 |①---|
②②①① |----|
口口口口 |②---|
口③③口 |③---|
48
口③口口 |①---|
②口口口 |----|
口口①① |②---|
口口口口 |③---|
49
②口①口 |①---|
口口口口 |----|
口口口口 |②---|
口口口口 |----|
50
口口口② |①---|
口①口③ |----|
口口口口 |②---|
口口口口 |③---|
51
口口口口 |①---|
口口口口 |----|
口口③① |②---|
口②口口 |③---|
52
口②口口 |①---|
①口③口 |②---|
口口口④ |③---|
口口口口 |④---|
53
口口口口 |①---|
口口口口 |----|
口②口口 |②---|
口口①口 |----|
54
②口口口 |①---|
③口①口 |----|
口口口口 |②---|
口口口口 |③---|
55
口口口口 |①---|
口口口口 |----|
①③口口 |②---|
口口②口 |③---|
56
口②③口 |①---|
④口①④ |②---|
口口口口 |③---|
口口口口 |④---|


不確定度: 0

最終更新:2014年02月17日 17:52