サヨナラ・ヘヴン
猫叉Master

ADVANCED

Level: 6
BPM: 111
Notes: 466

1
口口口口 |----|
口口口口 |----|
口口②口 |----|
口①口口 |①-②-|
2
①①⑤⑤ |①--②|
口②③口 |③-④-|
④⑦⑥口 |⑤--⑥|
口口口⑧ |⑦-⑧-|
3
①①⑤⑤ |①--②|
口②③口 |③-④-|
④口⑦口 |⑤---|
口⑥口口 |⑥-⑦-|
4
①①口口 |①--②|
口②③口 |③-④-|
④口口口
口口口口

口口口⑦
⑥⑧口口
口口口口 |⑤-⑥-|
口口口⑤ |⑦-⑧-|
5
口口口口 |①-②-|
②口口口 |③-④-|
口口③口
④口①口

口口口口
口口⑤口
口⑦口口 |⑤---|
口口⑥口 |⑥-⑦-|
6
⑤⑤①① |①--②|
口③②口 |③-④-|
口⑥⑦④ |⑤--⑥|
⑧口口口 |⑦-⑧-|
7
⑤⑤①① |①--②|
口③②口 |③-④-|
口⑦口④ |⑤---|
口口⑥口 |⑥-⑦-|
8
口口①① |①--②|
口③②口 |③-④-|
口口口④
口口口口

⑦⑥⑥⑦
口⑧⑧口
口⑤⑤口 |⑤-⑥-|
口口口口 |⑦-⑧-|
9
口口口口 |①---|
③口口② |----|
口口口口 |②---|
①口口① |③---|
10
口口①② |①---|
口口③② |----|
口口③口 |②---|
口口口口 |③---|
11
③口口口 |①---|
口口口口 |----|
口①口② |②---|
口①口口 |③---|
12
口⑤口② |①-②-|
③口⑥口 |③-④-|
口⑦口④ |⑤-⑥-|
口①⑧口 |⑦-⑧-|
13
③口口③ |①---|
口口口口 |----|
①口口口 |②---|
口②②口 |③---|
14
口口口口 |①---|
口①①口 |----|
口口口口
口口口口

②口口口
②③口口
口③口口 |②---|
口口口口 |③---|
15
口口口口 |①---|
口口口口 |----|
口口①口
口口①口

口口口口
口口口口
口③③口 |②---|
口②②口 |③---|
16
口③口② |①-②-|
①口⑥口 |③-④-|
口⑦④口 |⑤---|
⑤⑤口口 |--⑥⑦|
17
口④③口 |①--②|
口口口口 |--③-|
②口⑥② |④---|
口⑤①口 |⑤-⑥-|
18
⑤④③② |①-②-|
口①口口 |③-④-|
口口⑥口 |⑤---|
口口口口 |⑥---|
19
口口口口 |----|
口口②① |--①-|
③口口口 |②--③|
口口④口 |--④-|
20
口④③口 |①--②|
⑤②⑥口 |--③-|
口⑦口口 |④---|
口①口口 |⑤-⑥⑦|
21
口口④③ |①--②|
口口口口 |--③-|
②口⑥口 |④---|
口⑤①口 |⑤-⑥-|
22
⑤④③② |①-②-|
口①口口 |③-④-|
口口⑥口 |⑤---|
口口口口 |⑥---|
23
口口口口 |----|
②口口① |--①-|
口口③口 |②--③|
口④口口 |--④-|
24
口④③口 |①--②|
口口口口 |--③-|
口②口口 |④---|
口口①口 |----|
25
口口口口 |①--②|
口③口口 |--③-|
口口口②
口口①口

⑤口口⑥
口⑦④口
口口⑧口 |④-⑤-|
口口口口 |⑥-⑦⑧|
26
口口口口 |①--②|
口③口口 |--③-|
口口口口
口①口②

⑤口口⑥
口⑦④口
口口⑧口 |④-⑤-|
口口口口 |⑥-⑦⑧|
27
口③口口 |①--②|
口口④口 |--③-|
口⑤口② |④---|
口①⑥口 |⑤-⑥-|
28
口口口口 |①---|
口②②口 |②---|
口③③口 |③---|
①④④口 |④---|
29
口口口口 |①--②|
口③口② |--③-|
口口①口
口口口口

⑤口口⑥
口口④口
口口⑧口 |④-⑤-|
口⑦口口 |⑥-⑦⑧|
30
口③口口 |①--②|
口①口② |--③-|
口口口口
口口口口

⑤口④⑥
口⑦口口
口口⑧口 |④-⑤-|
口口口口 |⑥-⑦⑧|
31
口口口口 |①--②|
③口口口 |--③-|
口口⑥② |④---|
⑤①④口 |⑤-⑥-|
32
口口口口 |①---|
口①口口 |----|
口口口口 |----|
口口口口 |----|
33
口口口口 |①-②-③-|
④①①④ |--④-⑤-|
⑤②②⑤
口③③口

口口口口
口口口口
口⑧⑦口 |⑥---|
⑥⑧⑦⑥ |⑦-⑧-|
34
⑤⑤①① |①--②|
③口口② |③-④-|
⑥口口⑦ |⑤--⑥|
⑧⑧④④ |⑦-⑧-|
35
口口①① |①--②|
③口口② |③-④-|
口口口口
口口④④

⑤⑤口口
口口口口
口⑥⑦口 |⑤---|
口⑥⑦口 |⑥-⑦-|
36
①①口口 |①--②|
②口口③ |③-④-|
口口口口
④④口口

⑦⑦⑥⑥
口口口口
⑧⑧⑤⑤ |⑤-⑥-|
口口口口 |⑦-⑧-|
37
口口口口 |①-②-|
②②①① |③-④-|
口口口口
④④③③

口口口口
口口口口
⑤⑦⑥⑤ |⑤---|
口⑦⑥口 |⑥-⑦-|
38
⑤⑤①① |①--②|
③口口② |③-④-|
⑥口口⑦ |⑤--⑥|
⑧⑧④④ |⑦-⑧-|
39
口口①① |①--②|
③口口② |③-④-|
口口口口
口口④④

⑤⑤口口
口口口口
口⑥⑦口 |⑤---|
口⑥⑦口 |⑥-⑦-|
40
①①口口 |①--②|
②口口③ |③-④-|
口口口口
④④口口

⑦⑦⑥⑥
口口口口
⑧⑧⑤⑤ |⑤-⑥-|
口口口口 |⑦-⑧-|
41
口口口口 |①-②-|
②②①① |③-④-|
口口口口
④④③③

口口口口
口口口口
⑤⑦⑥⑤ |⑤---|
口⑦⑥口 |⑥-⑦-|
42
⑤⑤①① |①--②|
③口口② |③-④-|
⑥口口⑦ |⑤--⑥|
⑧⑧④④ |⑦-⑧-|
43
口口①① |①--②|
③口口② |③-④-|
口口口口
口口④④

⑤⑤口口
口口口口
口⑥⑦口 |⑤---|
口⑥⑦口 |⑥-⑦-|
44
①①口口 |①--②|
②口口③ |③-④-|
口口口口
④④口口

⑦⑦⑥⑥
口口口口
⑧⑧⑤⑤ |⑤-⑥-|
口口口口 |⑦-⑧-|
45
口口口口 |①-②-|
②②①① |③-④-|
口口口口
④④③③

口口口口
口口口口
⑤⑦⑥⑤ |⑤---|
口⑦⑥口 |⑥-⑦-|
46
②①①② |①--②|
③④④③ |--③-|
⑤口口⑤ |④--⑤|
⑥口口⑥ |--⑥-|
47
②口口② |①--②|
③口口③ |--③-|
口①①口
口口口口

口口口口
口④④口
口⑤⑥口 |④---|
口⑤⑥口 |⑤-⑥-|
48
①①口口 |①--②|
②口口③ |③-④-|
口口口口
④④口口

⑦⑦⑥⑥
口口口口
⑧⑧⑤⑤ |⑤-⑥-|
口口口口 |⑦-⑧-|
49
口口口口 |①---|
③①①② |----|
口口口口 |②---|
口口口口 |③---|
50
口口①② |①---|
口口③② |----|
口口③口 |②---|
口口口口 |③---|
51
③口口口 |①---|
口口口口 |----|
口①口② |②---|
口①口口 |③---|
52
口⑤口② |①-②-|
③口⑥口 |③-④-|
口⑦口④ |⑤-⑥-|
口①⑧口 |⑦-⑧-|
53
③口口③ |①---|
口口口口 |----|
①口口口 |②---|
口②②口 |③---|
54
口口口口 |①---|
口①①口 |----|
口口口口
口口口口

②口口口
②③口口
口③口口 |②---|
口口口口 |③---|
55
口口口口 |①---|
口口口口 |----|
口口①口
口口①口

口口口口
口口口口
口③③口 |②---|
口②②口 |③---|
56
口③口② |①-②-|
①⑥⑥口 |③-④-|
口口④口 |⑤---|
⑤口口口 |⑥---|


不確定度: 0

最終更新:2014年02月17日 17:52