ホーンテッド★メイドランチ
日向美ビタースイーツ♪

EXTREME

Level: 9
BPM: 188
Notes: 822

1
口口口口 |----|
口口口口 |----|
口口口口 |----|
口口口口 |----|
2
口口⑧④ |①-②-|
③⑦口口 |③-④-|
②⑥口口 |⑤-⑥-|
①⑤口口 |⑦-⑧-|
3
⑦④口口 |①-②-|
口口③⑥ |③-④-|
口口②⑤ |⑤-⑥-|
口口①口 |⑦---|
4
口口⑧④ |①-②-|
③⑦口口 |③-④-|
②⑥口口 |⑤-⑥-|
①⑤口口 |⑦-⑧-|
5
⑦④口口 |①-②-|
口口③⑥ |③-④-|
口口②⑤ |⑤-⑥-|
口口①口 |⑦---|
6
口口⑧④ |①-②-|
③⑦口口 |③-④-|
②⑥口口 |⑤-⑥-|
①⑤口口 |⑦-⑧-|
7
⑦④口口 |①-②-|
口口③⑥ |③-④-|
口口②⑤ |⑤-⑥-|
口口①口 |⑦---|
8
口口⑧④ |①②③④|
⑤①口口 |⑤⑥⑦⑧|
口⑦②口
③口口⑥

⑬⑨口口
口口⑭⑫
⑮口⑯⑩ |⑨⑩⑪⑫|
口⑪口口 |⑬⑭⑮⑯|
9
口口⑧② |①②③④|
⑤③口口 |⑤⑥⑦⑧|
口⑦口口
①口⑥④

口⑨口口
口口⑭⑫
⑬口⑯⑩ |⑨⑩⑪⑫|
⑮⑪口口 |⑬⑭⑮⑯|
10
口口口口 |①---|
口①口口 |----|
口口口口
口口口口
11
①②⑯⑮ |①②③④|
⑨⑩④③ |⑤⑥⑦⑧|
⑤⑥⑫⑪ |⑨⑩⑪⑫|
⑬⑭⑧⑦ |⑬⑭⑮⑯|
12
①②⑯⑮ |①②③④|
⑨⑩④③ |⑤⑥⑦⑧|
⑤⑥⑫⑪ |⑨⑩⑪⑫|
⑬⑭⑧⑦ |⑬⑭⑮⑯|
13
①②⑯⑮ |①②③④|
⑨⑩④③ |⑤⑥⑦⑧|
⑤⑥⑫⑪ |⑨⑩⑪⑫|
⑬⑭⑧⑦ |⑬⑭⑮⑯|
14
①口口口 |①-②-|
口⑥口② |③-④-|
③口⑦⑤ |⑤-⑥-|
口⑧口④ |⑦-⑧-|
15
①②⑯⑮ |①②③④|
⑨⑩④③ |⑤⑥⑦⑧|
⑤⑥⑫⑪ |⑨⑩⑪⑫|
⑬⑭⑧⑦ |⑬⑭⑮⑯|
16
①②⑯⑮ |①②③④|
⑨⑩④③ |⑤⑥⑦⑧|
⑤⑥⑫⑪ |⑨⑩⑪⑫|
⑬⑭⑧⑦ |⑬⑭⑮⑯|
17
①②⑯⑮ |①②③④|
⑨⑩④③ |⑤⑥⑦⑧|
⑤⑥⑫⑪ |⑨⑩⑪⑫|
⑬⑭⑧⑦ |⑬⑭⑮⑯|
18
③①口口 |①---|
③④①⑥ |②---|
②④⑤⑥ |③-④-|
口口⑤② |⑤-⑥-|
19
口口口④ |--①-|
口⑤①口 |②-③-|
②口⑦⑥ |④-⑤-|
⑧口口③ |⑥⑦⑧-|
20
⑤①⑦⑧ |①-②-|
⑥⑤②⑦ |③-④-|
口③口口 |⑤-⑥-|
口口④口 |⑦-⑧-|
21
④①口口 |--①-|
口口②⑤ |②-③-|
⑥⑦口口 |④-⑤-|
③口口⑧ |⑥⑦⑧-|
22
⑥⑤①⑦ |①-②-|
⑤②⑦⑧ |③-④-|
口口③口 |⑤-⑥-|
④口口口 |⑦-⑧-|
23
④口口口 |--①-|
口①⑤口 |②-③-|
⑥⑦②口 |④-⑤-|
口③口⑧ |⑥⑦⑧-|
24
口②口① |①-②-|
口口口口 |③-④-|
口口口③
④口口口

⑤口⑦⑧
⑥⑤口⑦
口口口口 |⑤-⑥-|
口口口口 |⑦-⑧-|
25
口口口口 |--①-|
口口口口 |----|
口①口口 |----|
口口口口 |----|
26
口口口口 |①---|
口②口口 |----|
口口①口 |②---|
口口③③ |③---|
27
⑤④①① |①-②-|
③⑥⑤⑤ |③-④-|
⑦②口口 |⑤-⑥-|
①⑧口口 |⑦-⑧-|
28
⑤④口口 |①-②-|
③⑥口口 |③-④-|
⑦②①① |⑤-⑥-|
①⑧口口 |⑦-⑧-|
29
⑤④口① |①-②-|
③⑥⑤① |③-④-|
⑦②⑤口 |⑤-⑥-|
①⑧口口 |⑦-⑧-|
30
⑤④口口 |①-②-|
③⑥口④ |③-④-|
⑦②口① |⑤-⑥-|
①⑧⑤① |⑦-⑧-|
31
口⑤④⑤ |①-②-|
⑤口⑥③ |③-④-|
口①②⑦ |⑤-⑥-|
①口⑧① |⑦-⑧-|
32
①口④⑤ |①-②-|
口①⑥③ |③-④-|
口口②⑦ |⑤-⑥-|
口口⑧① |⑦-⑧-|
33
①口④⑤ |①-②-|
①⑤⑥③ |③-④-|
口⑤②⑦ |⑤-⑥-|
口口⑧① |⑦-⑧-|
34
口口④⑤ |①-②-|
④口⑥③ |③-④-|
①口②⑦ |⑤-⑥-|
①⑤⑧① |⑦-⑧-|
35
口口口④ |--①-|
口⑤口① |②-③-|
②口⑦⑥ |④-⑤-|
⑧口口③ |⑥⑦⑧-|
36
⑤①⑦⑧ |①-②-|
⑥⑤②⑦ |③-④-|
口③口口 |⑤-⑥-|
口口④口 |⑦-⑧-|
37
④①口口 |--①-|
口口②⑤ |②-③-|
⑥⑦口口 |④-⑤-|
③口口⑧ |⑥⑦⑧-|
38
⑥⑤①⑦ |①-②-|
⑤②⑦⑧ |③-④-|
口口③口 |⑤-⑥-|
④口口口 |⑦-⑧-|
39
④口口口 |--①-|
口①⑤口 |②-③-|
⑥⑦②口 |④-⑤-|
口③口⑧ |⑥⑦⑧-|
40
口②口① |①-②-|
口口口口 |③-④-|
口口口③
④口口口

⑤口⑦⑧
⑥⑤口⑦
口口口口 |⑤-⑥-|
口口口口 |⑦-⑧-|
41
口口口口 |--①-|
口口口口 |----|
口①口口 |----|
口口口口 |----|
42
口口口口 |①---|
口②口口 |----|
口口①口 |②---|
口口③③ |③---|
43
⑤④①① |①-②-|
③⑥⑤⑤ |③-④-|
⑦②口口 |⑤-⑥-|
①⑧口口 |⑦-⑧-|
44
⑤④口口 |①-②-|
③⑥口口 |③-④-|
⑦②①① |⑤-⑥-|
①⑧口口 |⑦-⑧-|
45
⑤④口① |①-②-|
③⑥⑤① |③-④-|
⑦②⑤口 |⑤-⑥-|
①⑧口口 |⑦-⑧-|
46
⑤④口口 |①-②-|
③⑥口④ |③-④-|
⑦②口① |⑤-⑥-|
①⑧⑤① |⑦-⑧-|
47
口⑤④⑤ |①-②-|
⑤口⑥③ |③-④-|
口①②⑦ |⑤-⑥-|
①口⑧① |⑦-⑧-|
48
①口④⑤ |①-②-|
口①⑥③ |③-④-|
口口②⑦ |⑤-⑥-|
口口⑧① |⑦-⑧-|
49
①口④⑤ |①-②-|
①⑤⑥③ |③-④-|
口⑤②⑦ |⑤-⑥-|
口口⑧① |⑦-⑧-|
50
口口④⑤ |①-②-|
④口⑥③ |③-④-|
①口②⑦ |⑤-⑥-|
①⑤⑧① |⑦-⑧-|
51
③①②口 |--①-|
口①口口 |②-③-|
⑥③②⑦ |④-⑤-|
④口口⑤ |⑥-⑦-|
52
③③②② |①---|
①①①① |②---|
④②②④ |③---|
口③③口 |④---|
53
⑤口口② |--①-|
口①口⑥ |②-③-|
口口口口 |④-⑤-|
④口⑦③ |⑥-⑦-|
54
口①①口 |①---|
④②③⑤ |②-③-|
②①①③ |④---|
⑤口口④ |⑤---|
55
口①①① |--①-|
⑥口②⑤ |②-③-|
④口②⑦ |④-⑤-|
口③口口 |⑥-⑦-|
56
①③③口 |①---|
④③②③ |②---|
③③②口 |③---|
③③①① |--④-|
57
②⑥⑥② |①---|
口⑤口④ |②-③-|
口口⑦口 |④-⑤-|
口口③① |⑥-⑦-|
58
③口口⑤ |①-②-|
①口②④ |--③-|
①③口④ |④---|
口口口② |⑤---|
59
口口口⑥ |①-②-|
①③⑤口 |③-④-|
口口口口 |⑤-⑥-|
②④口⑦ |⑦---|
60
⑥⑥④口 |①-②-|
①③口口 |③-④-|
口口口口 |⑤---|
②口⑤口 |⑥---|
61
口⑦口口 |①-②-|
⑥口口⑤ |③-④-|
口④口③ |⑤-⑥-|
口②口① |⑦---|
62
⑥⑥口⑤ |①-②-|
口口④口 |③-④-|
③口口口 |⑤---|
①口②口 |⑥---|
63
⑥口口口 |①-②-|
口⑤③① |③-④-|
口口口口 |⑤-⑥-|
⑦口④② |⑦---|
64
⑥⑥⑤④ |①-②-|
口口口③ |③-④-|
口口口② |⑤---|
口口口① |⑥---|
65
口口⑤口 |①-②-|
口⑥口口 |③-④-|
④口口① |⑤-⑥-|
②口⑦③ |⑦---|
66
⑥⑥口⑤ |①-②-|
①口③口 |③-④-|
口②口④ |⑤---|
口口口口 |⑥---|
67
口口⑥⑤ |①---|
④口口② |②-③-|
口口口口 |④-⑤-|
①①口③ |--⑥-|
68
口口⑥⑤ |①---|
口口②口 |②-③-|
①①口口 |④-⑤-|
④口③口 |--⑥-|
69
口口⑥⑤ |①---|
①①口② |②-③-|
④口口口 |④-⑤-|
口口口③ |--⑥-|
70
口口⑥⑤ |①---|
口口口② |②-③-|
④口口口 |④-⑤-|
①①口③ |--⑥-|
71
口口口口 |①---|
口①①口 |----|
口口口口 |----|
口口口口 |----|
72
口口口口 |①---|
口口口口 |----|
口①①口 |----|
口口口口 |----|
73
口口口口 |①---|
口口口口 |----|
口口口口 |----|
口①①口 |----|
74
口口口口 |①---|
口口口口 |----|
①口口① |----|
口口口口 |----|
75
口口口口 |①---|
口④口口 |②---|
口口④口 |③---|
①②③口 |④---|
76
口②①口 |①---|
口口口① |----|
口口口② |②---|
口口口口 |----|
77
口口口口 |①---|
①口口口 |----|
口口口口 |----|
口口①口 |----|
78
口①②口 |①---|
①口口口 |----|
②口口口 |②---|
口口口口 |----|
79
口口口口 |①---|
口口口① |--②-|
口口口② |③---|
口①②③ |----|
80
①口口② |①-②-|
口③④口 |③-④-|
口⑤⑥口 |⑤-⑥-|
⑦口口⑧ |⑦-⑧-|
81
口①②口 |①-②-|
③口口④ |③-④-|
⑤口口⑥ |⑤-⑥-|
口⑦⑧口 |⑦-⑧-|
82
⑤口⑧④ |①②③④|
口①口⑥ |⑤⑥⑦⑧|
⑦口②口
③口口口

口⑨口口
⑪⑮⑫口
口口⑯⑩ |⑨⑩⑪⑫|
口⑬口⑭ |⑬⑭⑮⑯|
83
⑤口⑧② |①②③④|
⑨口口⑥ |⑤⑥⑦⑧|
⑦③口口 |⑨---|
①口④口 |----|
84
④②③口 |①-②-|
口②口口 |③-④-|
⑦④③⑧ |⑤-⑥-|
⑤①①⑥ |⑦-⑧-|
85
③③②② |①---|
①①①① |②---|
④②②④ |③---|
口③③口 |④---|
86
⑤口口② |--①-|
口①口⑥ |②-③-|
口口口口 |④-⑤-|
④口⑦③ |⑥-⑦-|
87
口①①口 |①---|
④②③⑤ |②-③-|
②①①③ |④---|
⑤口口④ |⑤---|
88
⑤⑤①① |--①-|
⑦②②口 |②-③-|
③③口⑥ |④-⑤-|
口④④⑥ |⑥-⑦-|
89
口③③① |①---|
④③②③ |②---|
③③②口 |③---|
③③口口 |--④-|
90
②⑥⑥② |①---|
口⑤口④ |②-③-|
口口⑦口 |④-⑤-|
口口③① |⑥-⑦-|
91
③口口⑤ |①-②-|
①口②④ |--③-|
①③口④ |④---|
口口口② |⑤---|

不確定度: 0

最終更新:2014年08月02日 00:33