PUNISHER
TAG×PON

ADVANCED

Level: 8
BPM: 180
Notes: 631

1
口口口口 |----|
口口口口 |----|
口口口口 |----|
口口口口 |----|
2
口口口口 |①---|
④①②④ |②---|
⑤①②⑤ |③--④|
口③③口 |--⑤-|
3
③①①③ |-①--|
口④④口 |②--③|
口②②口 |--④-|
⑤口口⑤ |⑤---|
4
口口口口 |①---|
①口口① |----|
①口口① |----|
口口口口 |----|
5
口口口口 |----|
口口口口 |----|
口口口口 |----|
口口口口 |----|
6
口口口口 |----|
口口口口 |----|
口口口口 |----|
口口口口 |----|
7
口口口口 |----|
口口口口 |----|
口口口口 |----|
口口口口 |----|
8
④口口③ |①---|
⑤②①⑤ |②---|
⑤①②⑤ |③--④|
③口口④ |--⑤-|
9
④②①③ |--①-|
口口口口 |②---|
口口口口 |③---|
③①②④ |④---|
10
④口⑤③ |①---|
口②①口 |②---|
口①②口 |③--④|
③⑤口④ |--⑤-|
11
口②口口 |--①-|
③口①④ |②---|
⑤①口⑥ |③-④-|
口口②口 |⑤-⑥-|
12
①③口① |①---|
⑤口口口 |②---|
口口④口 |③--④|
②②口口 |--⑤-|
13
口口口口 |--①-|
口③④口 |--②-|
口口口口 |--③-|
②①①② |④---|
14
①口③① |①---|
口口口⑤ |②---|
口④口口 |③--④|
口口②② |--⑤-|
15
口口口口 |--①-|
口④③口 |--②-|
口口口口 |--③-|
②①①② |④---|
16
①③口① |①---|
⑤口口口 |②---|
口口④口 |③--④|
②②口口 |--⑤-|
17
口口口口 |--①-|
口③④口 |--②-|
口口口口 |--③-|
②①①② |④---|
18
①③③① |①---|
⑤口口⑤ |②---|
口④④口 |③--④|
②口口② |--⑤-|
19
口口口口 |--①-|
口③④口 |--②-|
口口口口 |--③-|
②①①② |④---|
20
口口口④ |--①-|
口⑤⑤口 |②---|
①口口② |③--④|
口③③口 |--⑤-|
21
①口口口 |--①-|
口⑤口② |②-③-|
③口⑥口 |④--⑤|
口口口④ |--⑥-|
22
②①①② |①---|
口口口口 |②---|
④口口⑤ |③---|
④③③⑤ |④-⑤-|
23
②口口② |--①-|
口口口口 |②---|
口①①口 |----|
口口口口 |----|
24
口口口⑤ |--①-|
①⑥⑥② |②-③-|
口口口口 |④--⑤|
口③④口 |--⑥-|
25
①口口口 |--①-|
口⑤口② |②-③-|
③口⑥口 |④--⑤|
口口口④ |--⑥-|
26
②①①② |①---|
口口口口 |②---|
④口口⑤ |③---|
④③③⑤ |④-⑤-|
27
②口口③ |--①-|
②口口③ |②-③-|
口①①口 |----|
口口口口 |----|
28
口①①口 |①---|
口②②口 |②---|
口③③口 |③---|
④④⑤⑤ |④-⑤-|
29
口口口口 |--①-|
①①②② |②---|
口口口口 |----|
口口口口 |----|
30
⑦①口⑦ |①-②-|
口口②口 |③-④-|
口③口口 |⑤--⑥|
⑤口④⑥ |--⑦-|
31
口口口口 |--①-|
口口①口 |②-③-|
口②口口 |④--⑤|
④口③⑤ |----|
32
⑦口口⑦ |①-②-|
①口口② |③-④-|
③⑤⑥④ |⑤--⑥|
口⑤⑥口 |--⑦-|
33
口③③口 |--①-|
①①②② |②---|
口口口口 |③---|
口口口口 |----|
34
①⑦⑦口 |①-②-|
口口口② |③-④-|
③口口口 |⑤--⑥|
口⑤⑥④ |--⑦-|
35
口口口口 |--①-|
口口口① |②-③-|
②口口口 |④--⑤|
口④⑤③ |----|
36
口口口口 |①---|
①口口① |----|
口口③口 |----|
口②口口 |--②③|
37
口口口口 |①---|
口①口口 |----|
口③口口 |----|
口口②口 |--②③|
38
口口口口 |①---|
口③①口 |----|
口口④口 |②---|
②口口② |--③④|
39
③口口② |①---|
口口口口 |----|
口口口口 |②-③-|
⑤①口④ |④-⑤-|
40
⑥②①⑤ |①-②-|
②口口① |③-④-|
④口口③ |--⑤-|
口④③⑦ |⑥-⑦-|
41
口①②口 |①-②-|
①⑥⑤② |③-④-|
③⑥⑤④ |--⑤-|
口③④口 |⑥---|
42
②④④② |①---|
③口口③ |②---|
口口口口 |③--④|
①⑤⑤① |--⑤-|
43
口口口口 |①-②-|
口①口口 |③-④⑤|
⑦⑤④② |----|
③口⑥口 |--⑥⑦|
44
②口口② |①---|
口口①口 |②---|
口③③口 |③--④|
④④⑤⑤ |--⑤-|
45
口①口口 |①-②-|
口口②口 |③-④⑤|
③⑤④⑦ |----|
口⑥口口 |--⑥⑦|
46
②口口② |①---|
③①口③ |②---|
口口口口 |③--④|
④④⑤⑤ |--⑤-|
47
④口口⑤ |①-②-|
④⑥③⑤ |③-④⑤|
口②⑦① |----|
口口口口 |--⑥⑦|
48
②口口② |①---|
口④⑤口 |②---|
口④⑤口 |③--④|
③①口③ |--⑤-|
49
⑤①②⑥ |①-②-|
①⑦口② |③-④⑤|
③⑨⑧④ |--⑥-|
口③④口 |⑦-⑧⑨|
50
⑤①口⑤ |--①-|
口口口口 |②-③④|
口口口② |--⑤-|
口③④口 |----|
51
口口口口 |①---|
口口口口 |----|
②口口② |②---|
①口口① |----|
52
②口口② |①---|
①口口① |----|
口口口口 |②---|
口口口口 |----|
53
口口口口 |①---|
口口口口 |----|
口②②口 |②---|
口①①口 |----|
54
口②②口 |①---|
口①①口 |----|
口口口口 |②---|
口口口口 |----|
55
①口口② |①-②-|
口③⑧口 |③-④-|
口⑦④口 |⑤-⑥-|
⑤口口⑥ |⑦-⑧-|
56
口①②口 |①-②-|
③口口⑧ |③-④-|
⑦口口④ |⑤-⑥-|
口⑤⑥口 |⑦-⑧-|
57
口①①口 |①--②|
⑤②③⑥ |--③-|
⑥③②⑤ |-④--|
口④④口 |⑤-⑥-|
58
口①①口 |①--②|
口②③口 |--③-|
口③②口
口口口口

口⑥⑦口
⑤口口口
口口口⑤ |-④--|
口④④口 |⑤-⑥⑦|
59
③口口① |①--②|
口⑤口② |--③-|
②④④口 |④---|
口⑦⑥③ |⑤-⑥⑦|
60
④口口③ |①---|
口口口口 |②---|
②⑥⑤② |③-④-|
①口口口 |⑤-⑥-|
61
⑥②①⑤ |①-②-|
②口口① |③-④-|
④口口③ |--⑤-|
口④③⑦ |⑥-⑦-|
62
口①②口 |①-②-|
①⑥⑤② |③-④-|
③⑥⑤④ |--⑤-|
口③④口 |⑥---|
63
口口口口 |①---|
口口口口 |----|
②口口② |②---|
①口口① |----|
64
口口口口 |①---|
①口口① |----|
口口口口 |----|
口口口口 |----|
65
口口口口 |①---|
口口口口 |----|
口②②口 |②---|
口①①口 |----|
66
口口口口 |①---|
口①①口 |----|
口口口口 |----|
口口口口 |----|
67
口口口口 |①---|
口口口口 |②---|
③③④④ |③---|
①①②② |④---|
68
③③④④ |①---|
①①②② |②---|
口口口口 |③---|
口口口口 |④---|
69
④④④④ |①---|
③③③③ |②---|
②②②② |③---|
①①①① |④---|
70
口口口⑩ |①②③④|
⑨⑧⑦⑥ |⑤---|
⑤口口口 |⑥⑦⑧⑨|
①②③④ |⑩---|
71
口①口口 |①-②-|
口口口口 |③-④⑤|
⑦⑤④② |----|
③口⑥口 |--⑥⑦|
72
②口口② |①---|
口口①口 |②---|
口③③口 |③--④|
④④⑤⑤ |--⑤-|
73
口①口口 |①-②-|
口口②口 |③-④⑤|
③⑤④⑦ |----|
口⑥口口 |--⑥⑦|
74
②口口② |①---|
③①口③ |②---|
口口口口 |③--④|
④④⑤⑤ |--⑤-|
75
④口口⑤ |①-②-|
④⑥③⑤ |③-④⑤|
口②⑦① |----|
口口口口 |--⑥⑦|
76
②口口② |①---|
口④⑤口 |②---|
口④⑤口 |③--④|
③①口③ |--⑤-|
77
⑤①②⑥ |①-②-|
①⑦口② |③-④⑤|
③⑨⑧④ |--⑥-|
口③④口 |⑦-⑧⑨|
78
⑤①口⑤ |--①-|
口口口口 |②-③④|
口口口② |--⑤-|
口③④口 |----|
79
③口口口 |①---|
口②②口 |②---|
口①①④ |③--④|
⑤口口口 |--⑤-|
80
口③④口 |--①-|
口口②口 |--②-|
口①口口 |--③-|
口口口口 |④---|
81
口口口③ |①---|
②口口② |②---|
①④口① |③--④|
口口口⑤ |--⑤-|
82
口④③口 |--①-|
口口口② |--②-|
口口①口 |--③-|
口口口口 |④---|
83
④口口③ |①---|
⑤②①⑤ |②---|
⑤①②⑤ |③--④|
③口口④ |--⑤-|
84
④②①③ |--①-|
口口口口 |②---|
口口口口 |③---|
③①②④ |④---|
85
④口⑤③ |①---|
口②①口 |②---|
口①②口 |③--④|
③⑤口④ |--⑤-|
86
口②口口 |--①-|
③口①④ |②---|
⑤①口⑥ |③-④-|
口口②口 |⑤-⑥-|
87
口口口口 |①---|
口①①口 |----|
口①①口 |----|
口口口口 |----|

不確定度: 0

最終更新:2014年07月27日 02:28