Ahead Of The Light
MIYAVI

EXTREME

Level: 9
BPM: 130
Notes: 711

1
口②②口 |----|
②口口② |----|
①口口① |----|
口①①口 |①-②-|
2
口口口口 |①---|
口①①口 |----|
口①①口 |----|
口口口口 |----|
3
口口口口 |①---|
口口口口 |----|
口口口口 |----|
①①①① |----|
4
④④⑤⑥ |①-②③|
⑩⑩⑥⑤ |-④-⑤|
③①①② |-⑥-⑦|
⑦⑦⑨⑧ |⑧⑨⑩-|
5
④④⑤口 |①-②③|
⑥⑧⑦⑤ |-④-⑤|
③①①② |--⑥-|
⑥⑧⑦口 |⑦-⑧-|
6
④④⑤⑥ |①-②③|
⑩⑩⑥⑤ |-④-⑤|
③①①② |-⑥-⑦|
⑦⑦⑨⑧ |⑧⑨⑩-|
7
口④④口 |①-②③|
口口口口 |-④-⑤|
③①①②
口⑤⑤口

⑦口口⑥
⑥口口口
口⑦⑥⑦ |--⑥-|
⑥口口⑦ |⑦---|
8
⑦⑫⑨⑥ |①②③④|
⑧②③③ |-⑤-⑥|
⑤⑩⑪⑤ |-⑦-⑧|
⑥④①⑦ |⑨⑩⑪⑫|
9
⑥⑨⑨⑤ |①②③④|
口②③③ |-⑤-⑥|
⑦⑧⑧⑦ |--⑦-|
⑤④①⑥ |⑧-⑨-|
10
⑦⑫⑨⑥ |①②③④|
⑧②③③ |-⑤-⑥|
⑤⑩⑪⑤ |-⑦-⑧|
⑥④①⑦ |⑨⑩⑪⑫|
11
⑥⑧⑧⑤ |①②③④|
口②③③ |-⑤-⑥|
⑦⑨⑨⑦ |--⑦-|
⑤④①⑥ |⑧-⑨-|
12
②⑥口⑪ |①-②-|
④②⑤⑦ |③④⑤⑥|
⑧⑫⑨③ |⑦⑧⑨⑩|
⑫⑩口① |⑪-⑫-|
13
②⑥口⑨ |①-②-|
④②⑤⑦ |③④⑤⑥|
⑧⑩口③ |⑦-⑧-|
⑩⑧口① |⑨-⑩-|
14
②④口⑦ |①-②-|
⑧②口⑤ |③-④-|
④⑥口③ |⑤-⑥-|
⑥⑧口① |⑦-⑧-|
15
②④口口 |①-②-|
口②⑤口 |③-④⑤|
④口口③
口口口①

口口口口
⑥口口⑥
口口口口 |--⑥-|
⑦⑧⑧⑦ |⑦-⑧-|
16
①口口① |①-②③|
口③②④ |④---|
口口口⑤ |⑤---|
口口口⑥ |⑥---|
17
口口口① |①---|
口口口② |②---|
口口口③ |③-④-|
⑤④⑥⑤ |⑤-⑥-|
18
①口口口 |①-②③|
④②③口 |④---|
⑤口口口 |⑤---|
⑥口口口 |⑥---|
19
①口口口 |①---|
②口口口 |②---|
③口口口 |③-④-|
⑤⑥④⑤ |⑤-⑥-|
20
①口①① |①-②-|
②①③③ |③---|
口②④④ |④---|
口口⑤⑤ |⑤---|
21
口口①① |①---|
口口②② |②---|
口口口口
口口口口

口口口⑤
口口⑤口
口④③③ |③---|
④口④④ |④-⑤-|
22
①①口口 |①---|
②②口口 |②---|
③③口口 |③---|
④④口口 |④---|
23
①①口口 |①---|
②②口口 |②--③|
口口口口
③口口③

④口口④
口⑥⑥口
⑤口口⑤ |--④-|
口口口口 |⑤-⑥-|
24
⑥⑤①⑧ |①-②③|
⑤⑥口③ |-④-⑤|
⑧②②口 |-⑥-⑦|
⑦⑦①④ |--⑧-|
25
口⑤①⑥ |①-②③|
⑤⑧④④ |-④-⑤|
⑦②②口 |--⑥-|
⑦⑧①③ |⑦-⑧-|
26
⑥⑤①⑧ |①-②③|
⑤⑥口③ |-④-⑤|
⑧②②口 |-⑥-⑦|
⑦⑦①④ |--⑧-|
27
口⑤①⑥ |①-②③|
⑤⑧④④ |-④-⑤|
⑦②②口 |--⑥-|
⑦⑧①③ |⑦-⑧-|
28
⑥⑤①⑧ |①-②③|
⑤⑥口③ |-④-⑤|
⑧②②口 |-⑥-⑦|
⑦⑦①④ |--⑧-|
29
口⑤①⑥ |①-②③|
⑤⑧④④ |-④-⑤|
⑦②②口 |--⑥-|
⑦⑧①③ |⑦-⑧-|
30
⑥⑤①⑧ |①-②③|
⑤⑥口③ |-④-⑤|
⑧②②口 |-⑥-⑦|
⑦⑦①④ |--⑧-|
31
口⑤①口 |①-②③|
⑤口④④ |-④-⑤|
口②②口
口口①③

口口口⑧
口⑨口口
口口⑩⑧ |-⑥⑦-|
口⑦⑥口 |⑧-⑨⑩|
32
⑤①③⑦ |①-②③|
①⑤⑦③ |-④-⑤|
⑨⑧⑧⑩ |-⑥⑦-|
④⑥②④ |⑧-⑨⑩|
33
⑤①③⑦ |①-②③|
①⑤⑦③ |-④-⑤|
⑨⑧⑧⑩ |-⑥⑦-|
④⑥②④ |⑧-⑨⑩|
34
⑤①③⑦ |①-②③|
①⑤⑦③ |-④-⑤|
⑨⑧⑧⑩ |-⑥⑦-|
④⑥②④ |⑧-⑨⑩|
35
⑤①③⑦ |①-②③|
①⑤⑦③ |-④-⑤|
⑨⑧⑧⑩ |-⑥⑦-|
④⑥②④ |⑧-⑨⑩|
36
①口②④ |①-②-|
③口④② |③-④-|
⑤口⑥⑧ |⑤-⑥-|
⑦口⑧⑥ |⑦-⑧-|
37
①口②④ |①-②-|
③口④② |③-④-|
⑤口⑥⑧ |⑤-⑥-|
⑦口⑧⑥ |⑦-⑧-|
38
①口②④ |①-②-|
③口⑧② |③-④-|
⑤口④⑥ |⑤-⑥-|
⑦口⑥⑧ |⑦-⑧-|
39
①①①① |①---|
口口口口 |----|
口口口口
口口口口

②②②②
③口口③
口口口口 |----|
口③③口 |②-③-|
40
④⑥⑤口 |①-②③|
口①①口 |-④⑤⑥|
③①①②
口口口口

口口口口
⑧⑩⑨⑦
口口口口 |⑦⑧⑨⑩|
⑫⑫⑪⑪ |⑪-⑫-|
41
⑩④口⑨ |①-②③|
⑥⑫⑪⑤ |-④⑤⑥|
③①①② |⑦⑧⑨⑩|
⑧⑪⑫⑦ |⑪-⑫-|
42
④④⑤⑥ |①-②③|
⑦⑦⑥⑤ |-④-⑤|
③①①② |-⑥-⑦|
⑧口口⑧ |--⑧-|
43
④④⑤口 |①-②③|
口口口⑤ |-④-⑤|
③①①②
口口口口

口口口⑧
口⑦⑦口
口口口⑧ |-⑥-⑦|
⑥口口⑥ |--⑧-|
44
①②②口 |--①-|
口口口口 |②-③-|
①口口口
口③③口

口口⑥④
④口口口
口口⑥⑤ |④-⑤-|
⑤口口口 |--⑥-|
45
②①口② |--①-|
口口口口 |②---|
口①口口
口口口口

口口口口
口口口口
口⑤④口 |③---|
⑤③③④ |④-⑤-|
46
口①①② |--①-|
口口口口 |----|
①口口① |--②-|
口口口口 |----|
47
口⑥⑥口 |①---|
⑤口口口 |②---|
④⑤口口 |③-④-|
②④③① |⑤-⑥-|
48
④⑥⑤⑦ |①-②-|
⑧②⑦⑤ |③-④-|
⑥④①③ |⑤-⑥-|
②⑧③① |⑦-⑧-|
49
④口口口 |①-②-|
口②口③ |③-④-|
口④①③
②口口①

口口口⑤
⑦⑧⑤口
⑥口⑧口 |⑤-⑥-|
口⑥⑦口 |⑦-⑧-|
50
①①②② |①---|
口口口口 |--②-|
口口口①
②②口①

④口口口
口③口口
口口③口 |----|
口口口④ |③-④-|
51
口口②④ |①-②-|
口口④② |③-④-|
①口口③
口①③口

⑦口口口
口⑦口口
⑧⑥⑤口 |⑤-⑥-|
⑥⑧口⑤ |⑦-⑧-|
52
⑦①①④ |①-②③|
③口口口 |④⑤⑥⑦|
口⑤口②
口口⑥口

口⑪口口
口口⑫⑧
⑬⑮⑩口 |⑧⑨⑩⑪|
⑨口口⑭ |⑫⑬⑭⑮|
53
口⑧①① |①②③④|
②④⑦口 |⑤⑥⑦⑧|
口口口⑤
⑥口③口

⑫口⑮⑮
口口口⑪
⑯⑩⑬口 |⑨⑩⑪⑫|
口⑭口⑨ |⑬⑭⑮⑯|
54
口②口口 |①②③④|
⑥口③口 |⑤⑥⑦⑧|
口④⑦①
⑧口①⑤

⑩⑭口口
口口⑬⑨
⑫口口⑮ |⑨⑩⑪⑫|
口⑯⑪口 |⑬⑭⑮⑯|
55
口口①⑦ |①②③④|
②⑧口⑤ |⑤⑥⑦⑧|
口⑥③口
④口口口

⑫口口口
口口⑪口
口⑯⑮⑬ |⑨⑩⑪⑫|
⑭⑩口⑨ |⑬⑭⑮⑯|

不確定度: 0

最終更新:2014年08月01日 22:14