アルストロメリア
TAG

ADVANCED

Level: 7
BPM: 144
Notes: 457

1
口口口口 |----|
口口口口 |----|
口口口口 |----|
口口口口 |----|
2
①口口① |①---|
口口口口 |----|
口口口口
口口口口

②口口②
口口口口
③口口③ |----|
口口口口 |-②-③|
3
口口口口 |----|
口①①口 |----|
口口口口 |----|
口②②口 |-①-②|
4
口口口口 |----|
口口口口 |----|
口①①口 |①---|
②口口② |---②|
5
口口口口 |----|
口①②口 |----|
口②①口 |①---|
口口口口 |②---|
6
①口口① |①---|
口口口口 |----|
口口口口
口口口口

②口口②
口口口口
③口口③ |----|
口口口口 |-②-③|
7
口口口口 |----|
口①①口 |----|
口口口口 |----|
口②②口 |-①-②|
8
口口口口 |----|
②口口② |----|
口①①口 |①---|
口口口口 |---②|
9
口口口口 |----|
口口口口 |----|
口口口口 |----|
口口口口 |----|
10
①口口口 |①--②|
②口口口 |--③-|
③口口口 |----|
口口口口 |----|
11
口口④口 |--①-|
口口②口 |-②--|
口口③口 |③--④|
口口①口 |----|
12
①口口口 |①--②|
②口口口 |--③-|
③口口口 |----|
口口口口 |----|
13
口口④口 |--①-|
口口②口 |-②--|
口口③口 |③--④|
口口①口 |----|
14
①口口口 |①--②|
②口口口 |--③-|
③口口口
口口口口

口口口口
⑥口口口
口口⑤口 |--④-|
口口④口 |⑤-⑥-|
15
口口③口 |①-②③|
口④②口 |-④-⑤|
口①口口
口口⑤口

口口口口
⑥⑦口口
口口口口 |----|
口口口口 |--⑥⑦|
16
②口口③ |①--②|
⑥口①⑥ |--③-|
口口口口 |④--⑤|
⑤口口④ |---⑥|
17
口口口口 |----|
口口口口 |----|
①口③口 |--①-|
口②口口 |②-③-|
18
口③④⑤ |①--②|
口口②口 |--③-|
口①口口 |----|
口口口口 |--④⑤|
19
口口口口 |----|
口口④口 |--①-|
口①⑤③ |②-③-|
口口②口 |④-⑤-|
20
口②口口 |①--②|
口口④① |--③-|
③口⑤口 |----|
口口口口 |--④⑤|
21
口口口口 |①---|
口④口口 |----|
口口③口 |--②-|
口②①口 |③-④-|
22
②③①⑥ |①---|
口口④⑤ |--②-|
口口口口 |③-④-|
口口口口 |⑤-⑥-|
23
⑤口⑤口 |--①-|
口口口口 |--②-|
①④②口 |--③-|
口③口口 |④--⑤|
24
口口口口 |----|
⑤④③② |--①-|
口①口口 |②-③-|
口口口口 |④-⑤-|
25
口口口口 |①--②|
口口口口 |--③-|
③③④④ |④---|
①口口② |----|
26
口①口⑥ |①---|
口⑤①口 |--②-|
③④口口 |③-④-|
②口口口 |⑤-⑥-|
27
口口口口 |----|
口口②口 |----|
①口口口 |----|
口口口口 |①--②|
28
口口④口 |----|
口③口口 |--①-|
⑤口②口 |②-③-|
口①口口 |④-⑤-|
29
口口口口 |①--②|
⑥⑦口② |--③④|
⑤④③口 |⑤---|
口口口① |--⑥⑦|
30
口口口① |①--②|
口口口口 |--③④|
口口口②
口④③口

⑥口口⑥
口口口口
口口口口 |⑤---|
⑤口口口 |---⑥|
31
口口口口 |----|
口口口口 |----|
口口口口 |----|
口口口口 |----|
32
①口①口 |①--②|
⑤②⑥② |--③-|
③口③口 |-④--|
⑤④⑥④ |⑤-⑥-|
33
①口①口 |①--②|
⑥②⑤② |--③-|
③口③口 |-④--|
⑥④⑤④ |⑤-⑥-|
34
①口①口 |①--②|
⑤②⑥② |--③-|
③口③口 |-④--|
⑤④⑥④ |⑤-⑥-|
35
①④口① |①---|
口口口口 |--②-|
口③口口 |----|
②口口② |③-④-|
36
①口①口 |①--②|
⑤②⑥② |--③-|
③口③口 |-④--|
⑤④⑥④ |⑤-⑥-|
37
①口①口 |①--②|
⑥②⑤② |--③-|
③口③口 |-④--|
⑥④⑤④ |⑤-⑥-|
38
①口①口 |①--②|
口②口② |--③-|
③⑥③⑥ |-④--|
⑤④⑤④ |⑤-⑥-|
39
①口口① |①--②|
②④④② |--③-|
口口口口 |④---|
口③③口 |----|
40
④口口① |①--②|
⑤口口② |--③-|
⑥口口③ |④--⑤|
口口口口 |--⑥-|
41
口④①口 |①--②|
口⑤②口 |--③-|
口⑥③口 |④--⑤|
口口口口 |--⑥-|
42
④口口① |①--②|
⑤口口② |--③-|
⑥口口③ |④--⑤|
口口口口 |--⑥-|
43
④口①口 |①--②|
口⑤②口 |--③-|
⑥口③口 |④--⑤|
口口口口 |--⑥-|
44
④口口① |①--②|
⑤口口② |--③-|
⑥口口③ |④--⑤|
口口口口 |--⑥-|
45
口④①口 |①--②|
口⑤②口 |--③-|
口⑥③口 |④--⑤|
口口口口 |--⑥-|
46
口口口① |①--②|
口口口② |--③-|
④⑤⑥③ |④--⑤|
口口口口 |--⑥-|
47
口②③口 |①--②|
口①口口 |--③-|
口口④口 |④--⑤|
口⑥⑤口 |--⑥-|
48
口③③口 |①---|
口①口口 |--②-|
口②②口 |----|
口口口口 |---③|
49
口口口口 |----|
口口口口 |----|
口口口口 |----|
口口口口 |----|
50
①口口口 |①--②|
⑤口⑥② |--③-|
③口口口 |-④--|
⑤口⑥④ |⑤-⑥-|
51
①口口口 |①--②|
⑥口⑤② |--③-|
③口口口 |-④--|
⑥口⑤④ |⑤-⑥-|
52
①口口口 |①--②|
⑤口⑥② |--③-|
③口口口 |-④--|
⑤口⑥④ |⑤-⑥-|
53
①④口① |①---|
口口口口 |--②-|
口③口口 |----|
②口口② |③-④-|
54
①口口口 |①--②|
⑤口⑥② |--③-|
③口口口 |-④--|
⑤口⑥④ |⑤-⑥-|
55
①口口口 |①--②|
⑥口⑤② |--③-|
③口口口 |-④--|
⑥口⑤④ |⑤-⑥-|
56
①口口口 |①--②|
⑤口⑥② |--③-|
③口口口 |-④--|
⑤口⑥④ |⑤-⑥-|
57
①口口① |①--②|
口⑤口口 |--③④|
②口④② |⑤---|
口③口口 |----|
58
①口①口 |①--②|
⑤②⑥② |--③-|
③口③口 |-④--|
⑤④⑥④ |⑤-⑥-|
59
①口①口 |①--②|
⑥②⑤② |--③-|
③口③口 |-④--|
⑥④⑤④ |⑤-⑥-|
60
①口①口 |①--②|
⑤②⑥② |--③-|
③口③口 |-④--|
⑤④⑥④ |⑤-⑥-|
61
①④口① |①---|
口口口口 |--②-|
口③口口 |----|
②口口② |③-④-|
62
①口①口 |①--②|
⑤②⑥② |--③-|
③口③口 |-④--|
⑤④⑥④ |⑤-⑥-|
63
①口①口 |①--②|
⑥②⑤② |--③-|
③口③口 |-④--|
⑥④⑤④ |⑤-⑥-|
64
①口①口 |①--②|
口②口② |--③-|
③口③口
口口口口

口口口口
口⑥⑤口
口口口口 |-④--|
④⑥⑤④ |⑤-⑥-|
65
①口口① |①--②|
②④④② |--③-|
口口口口 |④---|
③口口③ |----|
66
①口口① |①---|
口口口口 |----|
口口口口
口口口口

②口口②
口口口口
③口口③ |----|
口口口口 |-②-③|
67
口口口口 |----|
口①①口 |----|
口口口口 |----|
口②②口 |-①-②|
68
口口口口 |----|
口口口口 |----|
口①①口 |①---|
②口口② |---②|
69
口口口口 |----|
口①②口 |----|
口②①口 |①---|
口口口口 |②---|
70
①口口① |①---|
口口口口 |----|
口口口口
口口口口

②口口②
口口口口
③口口③ |----|
口口口口 |-②-③|
71
口口口口 |----|
口①①口 |----|
口口口口 |----|
口②②口 |-①-②|
72
口口口口 |----|
②口口② |----|
口①①口 |①---|
口口口口 |---②|


不确定度: 0

最終更新:2012年11月08日 18:16