8 -eight-
Tom-H@ck feat.Nadia

EXTREME

Level: 9
BPM: 230
Notes: 669

1
口口口口 |----|
口口口口 |----|
口口口口 |----|
口口口口 |----|
2
口口口口 |----|
口口口口 |----|
口口口口 |----|
口口口口 |----|
3
口①口口 |①---|
①口①口 |----|
口①口① |----|
口口①口 |----|
4
口口口⑦ |①-②-③-|
①②③④ |④-⑤-⑥-|
⑤⑥口口 |⑦---|
口口口⑧ |⑧---|
5
①①口④ |①---|
口②口口 |----②-|
口口③口 |③---|
口口口口 |④---|
6
口口口口 |①---|
⑦口②口 |----|
口③口⑥ |②-③-④-|
口⑤④① |⑤-⑥-⑦-|
7
口口口① |①---②-|
口③⑩④ |③-④-⑤-|
⑤⑨②口 |⑥-⑦-⑧-|
⑦口⑧⑥ |⑨-⑩---|
8
口②口① |①-②-③-|
口④口⑤ |④-⑤-⑥-|
⑥口③口 |⑦---|
口口口⑦ |----|
9
口⑦①口 |①---②-|
口⑤⑥口 |③---④-|
口③④口 |⑤---⑥-|
口口②⑧ |⑦---⑧-|
10
口口口口 |①---②-|
③口口④ |③---④-|
①口口② |⑤---|
口⑥⑤口 |⑥---|
11
口口②口 |①---②-|
口⑤④口 |③---④-|
③口⑥口 |⑤---⑥-|
⑦口⑧① |⑦---⑧-|
12
①口②⑤ |①---②-|
③口④口 |③---④-|
口口口口 |⑤---|
口口口⑥ |⑥---|
13
口⑦⑧口 |①---②-|
口③⑥口 |③---④-|
⑤口④① |⑤---⑥-|
口口②口 |⑦---⑧-|
14
口口口⑥ |①---②-|
③口口口 |③---④-|
口口④口 |⑤---|
①口②⑤ |⑥---|
15
③⑤⑥⑧ |①---②-|
口口口① |③---④-|
口⑦④② |⑤---⑥-|
口口口口 |⑦---⑧-|
16
③口口口 |①---②-|
口口口口 |③---④-|
①口④② |⑤---|
⑤口口⑥ |⑥---|
17
口⑦①口 |①---②-|
口⑤⑥口 |③---④-|
口③④口 |⑤---⑥-|
口口②⑧ |⑦---⑧-|
18
⑤口口口 |①---②-|
③口⑥④ |③---④-|
①⑦口② |⑤---⑥-|
⑧⑧口口 |⑦---⑧-|
19
口口⑤⑤ |----①-|
②口口③ |②---|
口④口口 |③---|
口口③① |④---⑤-|
20
①③口口 |----①-|
口口④口 |②---|
③口口② |③---|
⑤⑤口口 |④---⑤-|
21
口④③口 |----①-|
口口口口 |②---|
④②①③ |③---|
口口口口 |④---|
22
②口口② |①---|
口①①口 |②---|
④口口④ |③---|
口③③口 |④---|
23
⑤口②口 |①---②-|
口③④口 |③---④-|
口口⑥口 |⑤---⑥-|
⑦口⑧① |⑦---⑧-|
24
口口②⑤ |①---②-|
口口④口 |③---④-|
①③口口 |⑤---|
口口口⑥ |⑥---|
25
口口⑧口 |①---②-|
口③⑥口 |③---④-|
⑤口④① |⑤---⑥-|
口⑦②口 |⑦---⑧-|
26
③⑧口口 |①---②-|
⑧口口⑥ |③---④-|
⑤⑦④口 |⑤---⑥-|
①口②口 |⑦---⑧-|
27
口口口① |----①-|
口②③口 |②---|
④口口⑤ |③---|
口口⑤③ |④---⑤-|
28
②口口口 |----|
口①口③ |①---|
口②口口 |②---|
④口口④ |③---④-|
29
口③③口 |----①-|
口②①口 |②---|
口口口口 |③---|
口④④口 |④---|
30
③口口③ |①---|
口口口口 |②---|
④②②④ |③---|
①口口① |④---|
31
口⑦①口 |①---②-|
口⑤⑥口 |③---④-|
口③④口 |⑤---⑥-|
口口②⑧ |⑦---⑧-|
32
①口口② |①---|
③③口口 |②---|
①口口② |③---|
④④口口 |④---|
33
口⑦①口 |①---②-|
口⑤⑥口 |③---④-|
口③④口 |⑤---⑥-|
口口②⑧ |⑦---⑧-|
34
口口口口 |①---②-|
③口口④ |③---④-|
①口口② |⑤---|
口⑤⑥口 |⑥---|
35
①口口⑤ |①---②-|
③④口口 |----③-|
口口口口 |④---|
②口口⑥ |⑤---⑥-|
36
口口口口 |----①-|
口口④③ |②---③-|
口口②① |④---|
口口口口 |----|
37
①口口⑤ |①---②-|
口口口口 |----③-|
口口④③ |④---|
②口口⑥ |⑤---⑥-|
38
口口口口 |----①-|
③④口口 |②---③-|
①②口口 |④---|
口口口口 |----|
39
②口口⑥ |①---②-|
口口④③ |----③-|
口口口口 |④---|
①口口⑤ |⑤---⑥-|
40
口口口口 |----①-|
口④⑥口 |②---③-|
口②③口 |④---⑤-|
口⑤①口 |----⑥-|
41
③①口⑤ |①---|
③③口口 |②---|
②口口口 |③---|
②口口④ |④---⑤-|
42
口④④口 |----①-|
口口口口 |②---|
③②口③ |③---|
⑤口①⑤ |④---⑤-|
43
口口口口 |----|
口口口口 |----|
口口口口 |----|
口口口口 |----|
44
④口口④ |----|
口③口口 |----|
口口②口 |①---②-|
①口口① |③---④-|
45
口口③口 |----①-|
口口①口 |②---|
口②口口 |③---|
口口④口 |④---|
46
④⑥⑥① |①---②-|
口②③口 |③---④-|
④口口① |----⑤-|
⑤⑤口口 |----⑥-|
47
④口口③ |----①-|
口口②① |②---|
口口口口 |③---|
④口口③ |④---|
48
口②①口 |①---|
①口口② |----②-|
②口口① |----|
口①②口 |----|
49
①口口① |①---②-|
口⑤③口 |③---④-|
口④②口 |⑤---|
⑦口口⑥ |⑥---⑦-|
50
口②①口 |①---②-|
②口口① |----③-|
口口口口 |----|
口③③口 |----|
51
口②①口 |①---②-|
口⑥口⑦ |----③-|
口④⑤口 |④---⑤-|
口口③口 |⑥---⑦-|
52
④③②④ |①---|
①口口口 |②---③-|
②口口③ |----|
口②③口 |----④-|
53
口③口口 |----①-|
口口①口 |②---|
口②口口 |③---|
口④口口 |④---|
54
④⑥⑥① |①---②-|
口②③口 |③---④-|
④口口① |----⑤-|
口口⑤⑤ |----⑥-|
55
口口口④ |----①-|
②③⑤口 |②---③-|
口⑥①④ |④---⑤-|
②口口口 |⑥---|
56
③①①口 |①-②---|
口③口口 |----③-|
口口③口 |----|
口②②③ |----|
57
口①②口 |----|
②口口① |①---|
口②②① |----②-|
口口①口 |----|
58
①③③② |①---|
③①①② |----②-|
②口口② |----|
口③口① |③---|
59
口口口口 |①---|
口①①② |----|
②①口口 |②---|
②口②① |----|
60
⑤①①⑤ |①---|
①④口口 |----|
口①③口 |②---③-|
②口口② |④---⑤-|
61
口口③口 |----①-|
口口①口 |②---|
口②口口 |③---|
口口④口 |④---|
62
④⑥⑥① |①---②-|
口②③口 |③---④-|
④口口① |----⑤-|
⑤⑤口口 |----⑥-|
63
④口口③ |----①-|
口口②① |②---|
口口口口 |③---|
④口口③ |④---|
64
口②①口 |①---|
①口口② |----②-|
②口口① |----|
口①②口 |----|
65
①口口① |①---②-|
⑥⑤③⑥ |③---④-|
口④②口 |⑤---⑥-|
口口口⑦ |----⑦-|
66
口口口口 |①---②-|
口口口口 |③---④-|
③④④① |----|
②口口口 |----|
67
口②①口 |①---②-|
口⑥口⑦ |----③-|
口④⑤口 |④---⑤-|
口口③口 |⑥---⑦-|
68
④③②④ |①---|
①口口口 |②---③-|
②口口③ |----|
口②③口 |----④-|
69
口③口口 |----①-|
口口①口 |②---|
口②口口 |③---|
口④口口 |④---|
70
④⑥⑥① |①---②-|
口②③口 |③---④-|
④口口① |----⑤-|
口口⑤⑤ |----⑥-|
71
口口口④ |----①-|
②③⑤口 |②---③-|
口⑥①④ |④---⑤-|
②⑦⑦口 |⑥---⑦-|
72
②①①口 |①---|
口③口③ |②---③-|
③口③口 |----|
口口口② |----|
73
②口①口 |----|
口口①口 |①---|
②口口口 |----②-|
②口①口 |----|
74
口②口① |①---|
口③③① |----②-|
口②口口 |----|
口②口① |③---|
75
②②口口 |①---|
①口口① |----|
②口①口 |②---|
①口②口 |----|
76
口②①口 |①---|
①④口② |----|
②口③① |②---|
口①②口 |③---④-|
77
口口口口 |----|
口口口口 |----|
口口口口 |----|
口口口口 |----|
78
口口口口 |----|
口口口口 |----|
口口口口 |①---|
①口①口 |----|
79
④①口① |①---②-|
口④②⑤ |③---|
⑥③⑤口 |④---|
口⑥口口 |⑤---⑥-|
80
口口口④ |----①-|
口口口口 |----②-|
口③口④ |③---|
①口②① |④---|
81
①②③口 |①---|
口口③口 |----②-|
①口口口 |----|
口口口口 |③---|
82
口口口① |----①-|
口②③口 |----|
口口口① |②---|
口口口口 |③---|
83
①口口口 |①---|
口口口② |----|
①口口口 |----|
口口口口 |----②-|
84
②口口③ |①---②-|
口口①口 |----③-|
口口口口 |----④-|
④口口⑤ |----⑤-|
85
④⑤口口 |①---②-|
口口口③ |----③-|
口②口⑥ |----④-|
口口①口 |⑤---⑥-|
86
口口⑤④ |①---②-|
口口口口 |③---④-|
口口①口 |⑤---|
②③口口 |----|
87
⑧口⑦口 |①-②-③-|
口⑥⑨① |④-⑤-⑥-|
②⑩⑤口 |⑦-⑧-⑨-|
⑫④③⑪ |⑩-⑪-⑫-|
88
⑫④⑪③ |①-②-③-|
②⑩口⑤ |④-⑤-⑥-|
⑥口⑨① |⑦-⑧-⑨-|
口⑧⑦口 |⑩-⑪-⑫-|
89
口⑥口③ |①---|
口口口⑤ |②---③-|
④口口⑦ |④---⑤-|
②口口① |⑥---⑦-|
90
口⑤口口 |①---|
口④②口 |②---③-|
口口口口 |④---|
口①③口 |⑤---|
91
⑤口口② |①---②-|
口⑦口④ |③---④-|
口③口⑥ |⑤---⑥-|
口①口⑧ |⑦---⑧-|
92
口口口② |①---②-|
③口口④ |③---④-|
①口口口 |⑤---|
⑤⑤口口 |----|
93
①②③口 |①---|
口口③口 |----②-|
口口口口 |----|
口口口口 |③---|
94
口口口① |----①-|
②口口③ |----|
口口口① |②---|
口口口口 |③---|
95
④口③口 |①-②-③-|
⑧口⑦口 |④-⑤-⑥-|
⑫⑥⑪⑤ |⑦-⑧-⑨-|
⑩②⑨① |⑩-⑪-⑫-|
96
⑤④③② |①---|
⑨⑧⑦⑥ |②③④⑤|
口口口⑫ |⑥⑦⑧⑨|
⑪口⑩① |⑩-⑪-⑫-|
97
口口②② |①---|
口口口② |----|
②①口口 |----|
②②口口 |----②-|

不確定度: 0

最終更新:2014年08月01日 23:52