METROPOLIS
→Pia-no-jaC←

BASIC

Level: 3
BPM: 140-160
Notes: 303

全程BPM在140-160之間飄忽不定
1
口口口口 |----|
口口口口 |----|
口口口口 |----|
口口口口 |----|
2
口口口口 |①---|
口①①口 |--②-|
口②②口 |----|
口口口口 |----|
3
口口口口 |①---|
口①①口 |--②-|
口②②口 |----|
口口口口 |----|
4
①口口① |①---|
②口口② |②---|
③口口③ |③---|
④口口④ |④---|
5
口④④口 |①---|
口③③口 |②---|
口②②口 |③---|
口①①口 |④---|
6
①口口口 |①---|
②口口口 |②---|
口③口口 |③---|
口④口口 |④---|
7
口口口① |①---|
口口口② |②---|
口口③口 |③---|
口口④口 |④---|
8
口①口口 |①---|
口②口口 |②---|
③口口口 |③---|
④口口口 |④---|
9
口口①口 |①---|
口口②口 |②---|
口口口③ |③---|
口口口④ |④---|
10
口口口口 |①---|
口口口口 |----|
口①①口 |----|
口①①口 |----|
11
口口口口 |①---|
①口口口 |----|
口口口口 |----|
口口口口 |----|
12
口口口口 |①---|
口①口口 |----|
口口口口 |----|
口口口口 |----|
13
口口口口 |①---|
口口①口 |----|
口口口口 |----|
口口口口 |----|
14
口口口口 |①---|
口口口口 |--②-|
口口口口 |----|
②①①② |----|
15
口口口口 |①---|
口口口口 |--②-|
②①①② |----|
口口口口 |----|
16
口口口口 |①---|
②①①② |--②-|
口口口口 |----|
口口口口 |----|
17
②①①② |①---|
口口口口 |--②-|
口口口口 |----|
口口口口 |----|
18
口口口口 |①---|
口口口口 |--②-|
②口口② |----|
口①①口 |----|
19
口口口口 |①---|
②口口② |--②-|
口①①口 |----|
口口口口 |----|
20
②口口② |①---|
口①①口 |--②-|
口口口口 |----|
口口口口 |----|
21
口①①口 |①---|
口②②口 |②---|
口③③口 |③---|
口④④口 |④---|
22
①口口① |①---|
②④④② |②---|
③口口③ |③---|
口口口口 |④---|
23
①口口① |①---|
口口口口 |--②-|
②口口② |----|
口口口口 |----|
24
口口口口 |①---|
口①①口 |--②-|
口口口口 |----|
口②②口 |----|
25
口口口口 |①---|
口口口口 |--②-|
①口口① |----|
②口口② |----|
26
口口口口 |①---|
口口口口 |----|
口①①口 |----|
口口口口 |----|
27
①口口② |①---|
口③④口 |②---|
口口口口 |③---|
口口口口 |④---|
28
口口口口 |①---|
口口口口 |②---|
①口口② |③---|
口③④口 |④---|
29
口口口口 |①---|
口口口口 |②---|
口①②口 |③---|
③口口④ |④---|
30
口口口口 |①---|
口口口口 |----|
口口口口 |----|
口①口口 |----|
31
口①②口 |①---|
③口口④ |②---|
口口口口 |③---|
口口口口 |④---|
32
口口口口 |①---|
口口口口 |②---|
口①②口 |③---|
③口口④ |④---|
33
口口口口 |①---|
口口口口 |②---|
①口口② |③---|
口③④口 |④---|
34
口口口口 |①---|
①口口口 |----|
口口口口 |----|
口口口口 |----|
35
①口口② |①---|
口③④口 |②---|
口口口口 |③---|
口口口口 |④---|
36
口口口口 |①---|
口口口口 |②---|
①口口② |③---|
口③④口 |④---|
37
口口口口 |①---|
口口口口 |②---|
口①②口 |③---|
③口口④ |④---|
38
口口口口 |①---|
口口口口 |----|
口口口口 |----|
口①口口 |----|
39
口①②口 |①---|
③口口④ |②---|
口口口口 |③---|
口口口口 |④---|
40
口口口口 |①---|
口口口口 |②---|
口①②口 |③---|
③口口④ |④---|
41
口口口口 |①---|
口口口口 |②---|
①口口② |③---|
口③④口 |④---|
42
口口口口 |①---|
口口口口 |----|
口口口口 |----|
①口口口 |----|
43
①②③④ |①---|
口口口口 |②---|
口口口口 |③---|
口口口口 |④---|
44
口口口口 |①---|
①②③④ |②---|
口口口口 |③---|
口口口口 |④---|
45
口口口口 |①---|
口口口口 |②---|
④③②① |③---|
口口口口 |④---|
46
口口口口 |①---|
口口口口 |②---|
口口口口 |③---|
④③②① |④---|
47
口口口口 |①---|
口①①口 |----|
口①①口 |----|
口口口口 |----|
48
口口口口 |①---|
①口口① |----|
①口口① |----|
口口口口 |----|
49
口口口口 |①---|
口口口口 |----|
口口口口 |----|
①①①① |----|
50
①①①① |①---|
口口口口 |----|
口口口口 |----|
口口口口 |----|
51
口口口口 |①---|
口口口口 |②---|
口口口口 |③---|
①②③④ |④---|
52
口口口口 |①---|
口口口口 |②---|
①②③④ |③---|
口口口口 |④---|
53
口口口口 |①---|
①②③④ |②---|
口口口口 |③---|
口口口口 |④---|
54
①②③④ |①---|
口口口口 |②---|
口口口口 |③---|
口口口口 |④---|
55
口口口口 |①---|
口口口口 |②---|
口口口口 |③---|
④③②① |④---|
56
口口口口 |①---|
口口口口 |②---|
④③②① |③---|
口口口口 |④---|
57
口口口口 |①---|
④③②① |②---|
口口口口 |③---|
口口口口 |④---|
58
④③②① |①---|
口口口口 |②---|
口口口口 |③---|
口口口口 |④---|
59
口口口① |①---|
口口口② |②---|
口口口③ |③---|
口口口④ |④---|
60
口口①口 |①---|
口口②口 |②---|
口口③口 |③---|
口口④口 |④---|
61
口④口口 |①---|
口③口口 |②---|
口②口口 |③---|
口①口口 |④---|
62
④口口口 |①---|
③口口口 |②---|
②口口口 |③---|
①口口口 |④---|
63
⑤口口⑤ |--①-|
④口口④ |-②--|
③②②③ |③--④|
口①①口 |--⑤-|
64
口口口口 |①---|
口①①口 |--②-|
口②②口 |----|
口口口口 |----|
65
口口口口 |①---|
口①①口 |--②-|
口②②口 |----|
口口口口 |----|
66
①口口① |①---|
②口口② |②---|
③口口③ |③---|
④口口④ |④---|
67
口④④口 |①---|
口③③口 |②---|
口②②口 |③---|
口①①口 |④---|
68
①口口① |①---|
②口口② |②---|
③口口③ |③---|
④口口④ |④---|
69
口④④口 |①---|
口③③口 |②---|
口②②口 |③---|
口①①口 |④---|
70
口口口口 |①---|
②④④② |②---|
口③③口 |-③--|
①口口① |-④--|
71
①口口① |----|
口③③口 |①---|
②③③② |②---|
口口口口 |-③--|


不確定度: 0

最終更新:2014年01月30日 23:01