METROPOLIS
→Pia-no-jaC←

ADVANCED

Level: 7
BPM: 140-160
Notes: 502

全程BPM在140-160之間飄忽不定
1
口口口口 |----|
口口口口 |----|
口口口口 |----|
口口口口 |----|
2
①口口① |①---|
口口口口 |--②-|
口口口口 |----|
②口口② |----|
3
口①①口 |①---|
口口口口 |--②-|
口口口口 |----|
口②②口 |----|
4
口口口口 |①---|
①②③④ |②---|
①②③④ |③---|
口口口口 |④---|
5
②④④② |①---|
口口口口 |②---|
口口口口 |③---|
①③③① |④---|
6
口口口口 |①-②-|
⑤⑥⑦⑧ |③-④-|
①②③④ |⑤-⑥-|
口口口口 |⑦-⑧-|
7
口口⑦口 |①-②-|
口⑥口口 |③-④-|
口口⑤口 |⑤-⑥-|
④③②① |⑦---|
8
口口口口 |①-②-|
⑤⑥⑦⑧ |③-④-|
①②③④ |⑤-⑥-|
口口口口 |⑦-⑧-|
9
口口口口 |①-②-|
口口口口 |③-④-|
口口口口
④③②①

⑥口口⑥
口⑤⑤口
口口口口 |⑤--⑥|
口⑦⑦口 |--⑦-|
10
口口口口 |①---|
口②③④ |②---|
①口口① |③---|
口口口口 |④---|
11
口口口口 |①---|
①②③④ |②---|
口口口口 |③---|
口口口口 |④---|
12
口口口口 |①---|
①②③④ |②---|
口口口口 |③---|
口口口口 |④---|
13
口口口口 |①---|
①②③④ |②---|
口口口口 |③---|
口口口口 |④---|
14
口口口口 |①--②|
口口口口 |--③-|
口⑤⑥口 |-④--|
①③④② |⑤-⑥-|
15
口⑤⑥口 |①--②|
①③④② |--③-|
口口口口 |-④--|
口口口口 |⑤-⑥-|
16
口口口口 |①--②|
口⑤⑥口 |--③-|
①③④② |-④--|
口口口口 |⑤-⑥-|
17
①③④② |①--②|
口⑤⑥口 |--③-|
口口口口 |-④--|
口口口口 |⑤-⑥-|
18
口口口口 |①--②|
口口口口 |--③-|
口⑤⑥口 |-④--|
①③④② |⑤-⑥-|
19
⑤口口⑥ |①--②|
①③④② |--③-|
口口口口 |-④--|
口口口口 |⑤-⑥-|
20
⑤口口⑥ |①--②|
⑤口口⑥ |--③-|
①③④② |-④--|
①③④② |⑤-⑥-|
21
⑦①①⑦ |①---②-|
⑧③③⑧ |--③-④-|
②④④② |⑤---⑥-|
⑥⑤⑤⑥ |--⑦-⑧-|
22
⑥③③口 |①---②-|
口④④口 |--③-④-|
①⑤⑤① |⑤---|
口②②口 |⑥---|
23
口口①① |①---|
口口口口 |--②-|
口口口口 |----|
口口②② |----|
24
①①口口 |①---|
口口口口 |--②-|
口口口口 |----|
②②口口 |----|
25
口①①口 |①---|
口口口口 |--②-|
口口口口 |----|
口②②口 |----|
26
口口口口 |①--②|
口①①口 |----|
口②②口 |----|
口口口口 |----|
27
①口口口 |①--②|
②口⑥口 |--③-|
口③口⑤ |--④-|
口口④口 |⑤-⑥-|
28
口口口① |①--②|
口⑥口② |--③-|
⑤口③口 |--④-|
口④口口 |⑤-⑥-|
29
①口口口 |①--②|
②口⑥口 |--③-|
口③口⑤ |--④-|
口口④口 |⑤-⑥-|
30
②口口① |①---|
口⑥口③ |②-③-|
④口⑦口 |④-⑤-|
口口口⑤ |⑥-⑦-|
31
①口口口 |①--②|
②口⑥口 |--③-|
口③口⑤ |--④-|
口口④口 |⑤-⑥-|
32
口口口① |①--②|
口⑥口② |--③-|
⑤口③口 |--④-|
口④口口 |⑤-⑥-|
33
①口口口 |①--②|
②口⑥口 |--③-|
口③口⑤ |--④-|
口口④口 |⑤-⑥-|
34
口⑥⑤① |①---|
口④⑦口 |②-③-|
口口③口 |④-⑤-|
口②口口 |⑥-⑦-|
35
①口口口 |①--②|
②口⑥口 |--③-|
口③口⑤ |--④-|
口口④口 |⑤-⑥-|
36
口口口① |①--②|
口⑥口② |--③-|
⑤口③口 |--④-|
口④口口 |⑤-⑥-|
37
①口口口 |①--②|
②口⑥口 |--③-|
口③口⑤ |--④-|
口口④口 |⑤-⑥-|
38
②口口① |①---|
口⑥口③ |②-③-|
④口⑦口 |④-⑤-|
口口口⑤ |⑥-⑦-|
39
①口口口 |①--②|
②口⑥口 |--③-|
口③口⑤ |--④-|
口口④口 |⑤-⑥-|
40
口口口① |①--②|
口⑥口② |--③-|
⑤口③口 |--④-|
口④口口 |⑤-⑥-|
41
①口口口 |①--②|
②口⑥口 |--③-|
口③口⑤ |--④-|
口口④口 |⑤-⑥-|
42
②口口① |①---|
口口口口 |----|
口口口口 |--②-|
口口口口 |----|
43
口①②口 |①-②-|
口③④口 |③-④-|
口⑤⑥口 |⑤-⑥-|
口⑦⑧口 |⑦-⑧-|
44
①①口口 |①--②|
②②⑤口 |--③-|
③③⑤口 |-④--|
④④口口 |⑤---|
45
②口口① |①-②-|
④口口③ |③-④-|
⑥口口⑤ |⑤-⑥-|
⑧口口⑦ |⑦-⑧-|
46
口口①① |①--②|
口⑤②② |--③-|
口⑤③③ |-④--|
口口④④ |⑤---|
47
①口口① |①---|
①口口① |----|
口口口口 |----|
口口口口 |----|
48
口口口口 |①---|
口①①口 |----|
口①①口 |----|
口口口口 |----|
49
口口口口 |①---|
①口口① |----|
①口口① |----|
口口口口 |----|
50
口口口口 |①---|
口口口口 |----|
口①①口 |----|
口①①口 |----|
51
⑤口口④ |①-②-|
口⑥③口 |③-④-|
口②⑦口 |⑤-⑥-|
①口口⑧ |⑦-⑧-|
52
口⑥⑦口 |①-②-|
⑤口口⑧ |③-④-|
①口口④ |⑤-⑥-|
口②③口 |⑦-⑧-|
53
①口口⑧ |①-②-|
口②⑦口 |③-④-|
口⑥③口 |⑤-⑥-|
⑤口口④ |⑦-⑧-|
54
口①②口 |①-②-|
③口口④ |③-④-|
⑤口口⑥ |⑤-⑥-|
口⑦⑧口 |⑦-⑧-|
55
①②③④ |①-②-|
⑤⑥⑦⑧ |③-④-|
口口口口 |⑤-⑥-|
口口口口 |⑦-⑧-|
56
口口口口 |①-②-|
口口口口 |③-④-|
⑧⑦⑥⑤ |⑤-⑥-|
④③②① |⑦-⑧-|
57
⑤②⑦④ |①-②-|
①⑥③⑧ |③-④-|
口口口口 |⑤-⑥-|
口口口口 |⑦-⑧-|
58
口口口口 |①-②-|
口口口口 |③-④-|
⑤②⑦④ |⑤-⑥-|
①⑥③⑧ |⑦-⑧-|
59
⑤口口④ |①-②-|
口⑥③口 |③-④-|
口②⑦口 |⑤-⑥-|
①口口⑧ |⑦-⑧-|
60
口⑥⑦口 |①-②-|
⑤口口⑧ |③-④-|
①口口④ |⑤-⑥-|
口②③口 |⑦-⑧-|
61
①口口⑧ |①-②-|
口②⑦口 |③-④-|
口⑥③口 |⑤-⑥-|
⑤口口④ |⑦-⑧-|
62
口①②口 |①-②-|
③口口④ |③-④-|
⑤口口⑥ |⑤-⑥-|
口⑦⑧口 |⑦-⑧-|
63
口⑤⑤口 |--①-|
④口口④ |-②--|
③②②③ |③--④|
①口口① |--⑤-|
64
①口口① |①--②|
口②②口 |--③-|
口口口口
③口口③

⑥口口⑥
④口口④
口⑤⑤口 |-④--|
口口口口 |⑤-⑥-|
65
⑥⑤⑤⑥ |①--②|
口①①口 |--③-|
②口口② |-④--|
④③③④ |⑤-⑥-|
66
口口口口 |①---|
①②③④ |②---|
①②③④ |③---|
口口口口 |④---|
67
②⑥⑥② |①---|
口④④口 |②-③-|
口③③口 |-④--|
①⑤⑤① |⑤-⑥-|
68
③口口③ |①---|
①⑤口② |②---|
①⑤口② |③---|
④口口④ |④--⑤|
69
口口口口 |-①--|
③口①③ |--②-|
口口①口 |③---|
④②②④ |④---|
70
⑤①①⑤ |①---|
④口口④ |②--③|
③②②③ |-④-⑤|
口⑥⑥口 |-⑥--|
71
④④④④ |-①--|
口①①口 |②---|
口③③口 |③---|
②口口② |-④--|


不確定度: 0

最終更新:2014年01月30日 23:01