METROPOLIS
→Pia-no-jaC←

EXTREME

Level: 10
BPM: 140-160
Notes: 895

全程BPM在140-160之間飄忽不定
1
口①口口 |----|
①口口口 |----|
口口口口 |----|
口口口口 |①---|
2
口口口口 |①②-③|
口口口口 |④-⑤⑥|
⑥②①⑤
口④③口

⑩口口⑩
口口口口
口⑨⑨口 |-⑦⑧-|
⑧口口⑦ |⑨-⑩-|
3
⑩②①⑩ |①②-③|
⑥④③⑤ |④-⑤⑥|
⑧口口⑦ |-⑦⑧-|
⑨口口⑨ |⑨-⑩-|
4
口口口口 |①②③-|
④①①④ |④-⑤⑥|
⑥②②⑤
口③③口

⑩⑧⑦⑩
口口口口
口⑨⑨口 |-⑦⑧-|
口口口口 |⑨-⑩-|
5
口口口口 |①②-③|
②⑥⑤① |④-⑤⑥|
口口口口
④口口③

口⑨口口
⑨口口口
口⑧⑦口 |-⑦⑧-|
口口口口 |⑨---|
6
①口口口 |①②③④|
口⑤⑦⑥ |⑤⑥⑦⑧|
口口⑧②
口口④③

⑫⑪⑩⑨
口口口口
口⑮口⑬ |⑨⑩⑪⑫|
⑯口⑭口 |⑬⑭⑮⑯|
7
口⑧⑦⑥ |①②③④|
①口③② |⑤⑥⑦⑧|
⑤口④口
口口口口

口口口口
⑪口口⑪
口⑩口⑨ |⑨⑩-⑪|
口⑩口⑨ |----|
8
口口②① |-①②③|
口口③口 |④⑤⑥⑦|
④口⑥口
口⑤口⑦

⑧⑨⑫⑪
口⑩⑬口
口⑭口口 |⑧⑨⑩⑪|
口口⑭口 |⑫⑬⑭-|
9
⑦口口口 |-①②③|
口⑥口④ |④⑤⑥⑦|
①口⑤口
②③口口

口⑨口⑧
口口口口
口⑨口⑧ |⑧--⑨|
口⑩⑩口 |--⑩-|
10
④口口② |①--②|
①口口① |③--④|
口口③口
口口口口

口口口口
口口口⑥
⑧⑤口口 |⑤--⑥|
⑨口⑦口 |⑦-⑧⑨|
11
④口口② |①--②|
口口口⑥ |③--④|
⑧⑤③口 |⑤--⑥|
⑨①⑦口 |⑦-⑧⑨|
12
④口口② |①--②|
口口口口 |③--④|
⑨⑤③⑥ |⑤-⑥⑦|
⑩①⑧⑦ |⑧-⑨⑩|
13
④口口② |①--②|
⑦口口⑦ |③--④|
口⑤③口 |⑤-⑥-|
⑥①口⑥ |⑦---|
14
⑥口口⑥ |①--②|
④②②④ |--③-|
口⑤⑤口 |-④--|
③①①③ |⑤-⑥-|
15
口②②口 |①--②|
口①①口 |--③-|
口口口口
口③③口

口口口口
④⑥⑥④
口口口口 |-④--|
⑤口口⑤ |⑤-⑥-|
16
②④④② |①--②|
⑥口口⑥ |--③-|
③①①③ |-④--|
口⑤⑤口 |⑤-⑥-|
17
②④④② |①--②|
⑥口口⑥ |--③-|
③①①③ |-④--|
⑤口口⑤ |⑤-⑥-|
18
②⑥⑥② |①--②|
④①①④ |--③-|
⑤③③⑤ |-④--|
口①①口 |⑤-⑥-|
19
口口口口 |①--②|
口②②口 |--③-|
口③③口
口①①口

④口口④
口⑥⑥口
口口口口 |-④--|
⑤口口⑤ |⑤-⑥-|
20
口②②口 |①--②|
①口口① |--③-|
①③③①
口口口口

④口口④
⑥口口⑥
口口口口 |-④--|
口⑤⑤口 |⑤-⑥-|
21
口①①口 |①---②-|
口③③口 |--③-④-|
④②②④
口口口口

口⑦⑦口
⑧口口⑧
口口口口 |⑤---⑥-|
⑥⑤⑤⑥ |--⑦-⑧-|
22
③⑥口③ |①---②-|
⑥④④口 |--③-④-|
⑤①①⑤ |⑤---|
口②②口 |⑥---|
23
①口口③ |①--②|
口口②口 |--③-|
口①口口
③③口①

口口⑥口
口口口口
口口⑤口 |--④-|
口口口④ |⑤-⑥-|
24
口①⑥② |①--②|
口口③① |--③-|
①口口⑤ |--④-|
③③④口 |⑤-⑥-|
25
①口口③ |①--②|
口口口① |--③-|
口①②口
③③口口

口口口口
口口口⑥
口口口⑤ |--④-|
口口口④ |⑤-⑥-|
26
⑦②②③ |①--②|
⑧①①④ |----|
⑨①①⑤ |③④⑤⑥|
⑩②②⑥ |⑦⑧⑨⑩|
27
口①①② |①--②|
口③口口 |③-④-|
口口④口
口口口口

口口口⑧
口口⑦口
口⑤口口 |⑤-⑥-|
口⑦口⑥ |⑦-⑧-|
28
①口口⑧ |①--②|
③口口④ |③-④-|
⑤口⑦① |⑤-⑥-|
⑦口②⑥ |⑦-⑧-|
29
口①②⑧ |①--②|
口③①口 |③-④-|
口⑤⑦④ |⑤-⑥-|
口⑦口⑥ |⑦-⑧-|
30
①口口口 |①---|
口口①口 |②③④⑤|
②④⑤③
口口口口

⑫口口口
⑥口⑪⑦
口口口口 |⑥⑦⑧⑨|
⑩⑧⑨⑬ |⑩⑪⑫⑬|
31
口①①② |①--②|
口③口口 |③-④-|
口口④口
口口口口

口口口⑧
口口⑦口
口⑤口口 |⑤-⑥-|
口⑦口⑥ |⑦-⑧-|
32
①口口⑧ |①--②|
③口口④ |③-④-|
⑤口⑦① |⑤-⑥-|
⑦口②⑥ |⑦-⑧-|
33
口①②口 |①--②|
口③①口 |③-④-|
口口口④
口口口口

口口口口
口口⑧口
口⑤⑦口 |⑤-⑥-|
口⑦口⑥ |⑦-⑧-|
34
①②③① |①---|
⑧口⑪⑨ |②③④⑤|
④⑩口⑤ |⑥⑦⑧⑨|
⑫⑥⑦⑬ |⑩⑪⑫⑬|
35
口①①② |①--②|
口③口口 |③-④-|
口口④口
口口口口

口口口⑧
口口⑦口
口⑤口口 |⑤-⑥-|
口⑦口⑥ |⑦-⑧-|
36
①口口⑧ |①--②|
③口口④ |③-④-|
⑤口⑦① |⑤-⑥-|
⑦口②⑥ |⑦-⑧-|
37
口①②⑧ |①--②|
口③①口 |③-④-|
口⑤⑦④ |⑤-⑥-|
口⑦口⑥ |⑦-⑧-|
38
①②③口 |①---|
④口①口 |②③④⑤|
口口⑤口
口口口口

口口口口
口口⑨⑬
⑩⑥口口 |⑥⑦⑧⑨|
⑧⑫⑪⑦ |⑩⑪⑫⑬|
39
口①①② |①--②|
口③口口 |③-④-|
口口④口
口口口口

口口口⑧
口口⑦口
口⑤口口 |⑤-⑥-|
口⑦口⑥ |⑦-⑧-|
40
①口口⑧ |①--②|
③口口④ |③-④-|
⑤口⑦① |⑤-⑥-|
⑦口②⑥ |⑦-⑧-|
41
口①②口 |①--②|
口③①口 |③-④-|
口口口④
口口口口

口口口口
口口⑧口
口⑤⑦口 |⑤-⑥-|
口⑦口⑥ |⑦-⑧-|
42
①口口① |①---|
②口口② |----|
②口口② |--②-|
口口口口 |----|
43
①口③② |①②③④|
口①④⑥ |⑤⑥⑦⑧|
口⑤⑧⑦
口口口口

⑬⑭口口
口⑮口口
口口口口 |⑨⑩⑪⑫|
⑨⑩⑪⑫ |⑬⑭⑮-|
44
口口口② |①②-③|
④口口① |④-⑤⑥|
③口⑥口
口口⑤口

口口⑨⑨
口口口口
口⑧口口 |-⑦⑧-|
口⑦口口 |⑨---|
45
①口口⑩ |①②③④|
⑤②③⑫ |⑤⑥⑦⑧|
口⑥⑪④ |⑨-⑩-|
⑨口⑦⑧ |⑪-⑫-|
46
②口口口 |①②-③|
①口口口 |④-⑤⑥|
口⑥口④
口⑤口③

口口⑧口
⑨⑨⑦口
口口口口 |-⑦⑧-|
口口口口 |⑨---|
47
⑤⑥⑦⑧ |①②③④|
口口口④ |⑤⑥⑦⑧|
口口③口
①②口口

口口口口
口⑬口⑯
⑨⑩⑭⑮ |⑨⑩⑪⑫|
口口⑪⑫ |⑬⑭⑮⑯|
48
①口③④ |①②③④|
口口②口 |⑤⑥⑦⑧|
口⑥口口
⑤口⑦⑧

口口口口
⑬⑭⑮⑯
⑨口⑪⑫ |⑨⑩⑪⑫|
口⑩口口 |⑬⑭⑮⑯|
49
口口口口 |①②③④|
口口口口 |⑤⑥⑦⑧|
⑤②⑦⑧
①⑥③④

⑨口⑪⑩
⑬口⑫口
口⑭口口 |⑨⑩⑪⑫|
口口⑮⑯ |⑬⑭⑮⑯|
50
⑬⑭⑦⑥ |①②③④|
口⑮⑧② |⑤⑥⑦⑧|
⑨⑩④③ |⑨⑩⑪⑫|
①⑤⑪⑫ |⑬⑭⑮-|
51
口口口口 |①②③④|
口口⑦⑧ |⑤⑥⑦⑧|
⑤⑥③④
①②口口

⑨⑩⑪⑫
⑬⑭口口
口口⑮口 |⑨⑩⑪⑫|
口口口⑯ |⑬⑭⑮⑯|
52
⑨⑭⑮⑯ |①②③④|
⑬⑩⑦⑧ |⑤⑥⑦⑧|
①⑥⑪④ |⑨⑩⑪⑫|
⑤②③⑫ |⑬⑭⑮⑯|
53
⑤口口口 |①②③④|
口口④③ |⑤⑥⑦⑧|
①口⑥②
口口⑦⑧

口⑩⑪⑫
⑨⑭⑮⑯
⑬口口口 |⑨⑩⑪⑫|
口口口口 |⑬⑭⑮⑯|
54
口口口口 |①②③④|
⑤口口口 |⑤⑥⑦⑧|
口⑥⑦④
①②③⑧

⑬口⑪⑩
口口⑫⑭
⑨口口⑮ |⑨⑩⑪⑫|
口口口口 |⑬⑭⑮-|
55
口口⑦⑧ |①②③④|
①⑥口口 |⑤⑥⑦⑧|
口②③口
⑤口口④

⑨⑩口口
口口⑪⑯
⑬口⑮⑫ |⑨⑩⑪⑫|
口⑭口口 |⑬⑭⑮⑯|
56
口口③④ |①②③④|
①②口口 |⑤⑥⑦⑧|
口⑥口口
⑤口⑦⑧

⑬口⑮⑯
口口⑭口
⑨口⑪⑫ |⑨⑩⑪⑫|
口⑩口口 |⑬⑭⑮⑯|
57
口口口口 |①②③④|
①口口⑥ |⑤⑥⑦⑧|
口②⑧⑦
⑤口③④

口口口⑫
⑬⑩⑪口
⑨⑭口口 |⑨⑩⑪⑫|
口口⑮⑯ |⑬⑭⑮⑯|
58
①口⑥⑦ |①②③④|
口口⑧② |⑤⑥⑦⑧|
口口④③
⑤口口口

⑬口口口
口⑭口口
⑨口⑮口 |⑨⑩⑪⑫|
口⑩⑪⑫ |⑬⑭⑮-|
59
口①③② |①②③④|
①口口④ |⑤⑥⑦⑧|
⑤⑥口口
口口⑦⑧

⑬口⑭⑮
口⑩口⑯
口口⑪⑫ |⑨⑩⑪⑫|
⑨口口口 |⑬⑭⑮⑯|
60
口口口口 |①②③④|
①口口口 |⑤⑥⑦⑧|
口⑥⑦⑧
⑤②③④

⑨口⑪⑩
⑬⑭⑮⑫
口口口口 |⑨⑩⑪⑫|
口口口⑯ |⑬⑭⑮⑯|
61
⑤口⑦⑥ |①②③④|
口口口⑧ |⑤⑥⑦⑧|
①口③④
口口②口

口口口口
口口⑪口
⑬⑩口⑯ |⑨⑩⑪⑫|
⑨⑭⑮⑫ |⑬⑭⑮⑯|
62
口口②⑥ |①②③④|
①口⑦③ |⑤⑥⑦⑧|
口口④口
⑤口口⑧

口⑮⑮口
⑬口口⑭
⑨⑩口⑫ |⑨⑩⑪⑫|
口口⑪口 |⑬⑭⑮-|
63
⑤口口⑤ |--①-|
口③③口 |-②--|
④②②④ |③--④|
①口口① |--⑤-|
64
口口口口 |①②-③|
口口口口 |④-⑤⑥|
⑥②①⑤
口④③口

⑩口口⑩
口口口口
口⑨⑨口 |-⑦⑧-|
⑧口口⑦ |⑨-⑩-|
65
⑩②①⑩ |①②-③|
⑥④③⑤ |④-⑤⑥|
⑧口口⑦ |-⑦⑧-|
⑨口口⑨ |⑨-⑩-|
66
⑩⑧⑦⑩ |①②③-|
④①①④ |④-⑤⑥|
⑥②②⑤ |-⑦⑧-|
⑨③③⑨ |⑨-⑩-|
67
口⑨⑧口 |①②③④|
⑦②①⑥ |⑤-⑥⑦|
⑪④③⑩ |-⑧⑨-|
⑪口⑤⑩ |⑩-⑪-|
68
⑦口口⑥ |①②③④|
口②①口 |⑤-⑥⑦|
口④③口
口口⑤口

口口口口
口⑪⑩口
口⑫⑫口 |-⑧⑨-|
⑨口口⑧ |⑩⑪-⑫|
69
口④④口 |-①②-|
②口口① |③-④-|
口口口口
口③③口

口口口口
⑧口口⑦
⑥口口⑤ |⑤⑥--|
口口口口 |⑦⑧--|
70
口⑥⑥口 |①②③-|
口①①口 |④⑤-⑥|
⑤②②④
口③③口

⑧口口⑧
口⑩⑨口
口口⑪口 |-⑦-⑧|
⑦口口⑦ |-⑨⑩⑪|
71
口口口口 |①②--|
口口口口 |③④--|
④①口③
口口②口

口⑨⑤口
口⑥⑨口
口⑨⑦口 |⑤⑥⑦⑧|
口⑧⑨口 |-⑨--|

不確定度: 0

最終更新:2014年01月30日 23:00