Dispersion Star
ZUKI

EXTREME

Level: 9
BPM: 180
Notes: 528

1
口口口口 |----|
口口口口 |----|
口口口口 |----|
口口口口 |----|
2
口口口② |①-②-|
③口口口 |--③-|
口①①④ |--④-|
⑤口口口 |--⑤-|
3
口口口① |--①-|
②口口口 |--②-|
口口口③ |--③-|
④口口口 |--④-|
4
②④③① |--①-|
④②①③ |--②-|
口口口口 |--③-|
口口口口 |--④-|
5
②口口① |--①-|
④②①④ |--②-|
口口口口 |--③-|
口③③口 |④---|
6
口⑦④① |①-②-|
⑦口口口 |③-④-|
②③④① |⑤-⑥-|
⑤⑥口口 |⑦---|
7
口口⑥⑤ |①-②-|
口口③② |③-④-|
①④口口 |⑤-⑥-|
口口口⑦ |⑦---|
8
②⑤口口 |①-②-|
③⑥④① |③-④-|
口口①④ |⑤-⑥-|
⑦⑦口口 |⑦---|
9
①口口⑦ |①-②-|
④口口口 |③-④-|
口口⑥⑤ |⑤-⑥-|
口口③② |⑦---|
10
②③口口 |①-②-|
⑦口①④ |③-④-|
⑤⑥口口 |⑤-⑥-|
⑦口④① |⑦---|
11
①口口口 |①-②-|
口口⑥⑤ |③-④-|
④口口⑦ |⑤-⑥-|
口口③② |⑦---|
12
口⑧①⑦ |①-②-|
③④口口 |③-④-|
口②①⑦ |⑤-⑥-|
口④⑥⑤ |⑦-⑧-|
13
口口③口 |①-②-|
②口口口 |③-④-|
①口口口
②④口口

口口口口
口⑦⑥⑤
⑦⑥⑤口 |⑤--⑥|
口口口口 |--⑦-|
14
口口口口 |----|
口口口口 |----|
口口口口 |----|
口口口口 |----|
15
④③口口 |①-②-|
⑤口口口 |③-④-|
⑥口口口 |--⑤-|
②①口口 |--⑥-|
16
口口④口 |--①-|
口②①口 |②-③-|
口口③口 |④---|
口口⑤口 |⑤---|
17
口③口口 |①---|
口④口口 |--②-|
②口口口 |--③-|
①口口口 |④---|
18
口口⑥① |--①-|
口口②⑤ |②-③-|
口口⑦③ |④-⑤-|
口口口④ |⑥-⑦-|
19
④③口口 |①-②-|
⑤口口口 |③-④-|
⑥口口口 |--⑤-|
②①口口 |--⑥-|
20
⑦⑧口口 |--①②|
口⑤⑥口 |③④⑤⑥|
口③④口 |⑦---|
口①②口 |⑧---|
21
②口③① |①---|
口口口口 |--②-|
口口口口 |----|
③①②口 |③---|
22
②①口② |--①-|
③口口③ |----|
④口口④ |②--③|
口口口① |--④-|
23
④③口口 |①-②-|
⑤口口口 |③-④-|
⑥口口口 |--⑤-|
②①口口 |--⑥-|
24
口口④口 |--①-|
口②①口 |②-③-|
口口③口 |④---|
口口⑤口 |⑤---|
25
口③口口 |①---|
口④口口 |--②-|
②口口口 |--③-|
①口口口 |④---|
26
口口⑥① |--①-|
口口②⑤ |②-③-|
口口⑦③ |④-⑤-|
口口口④ |⑥-⑦-|
27
④③口口 |①-②-|
⑤口口口 |③-④-|
⑥口口口 |--⑤-|
②①口口 |--⑥-|
28
⑦⑧口口 |--①②|
口⑤⑥口 |③④⑤⑥|
口③④口 |⑦---|
口①②口 |⑧---|
29
②口①口 |①---|
口②口① |--②-|
口口口口 |----|
③④⑤⑥ |③④⑤⑥|
30
⑨⑩⑪⑫ |①②③④|
⑤⑥⑦⑧ |⑤⑥⑦⑧|
①②③④ |⑨⑩⑪⑫|
⑬⑭⑮口 |⑬⑭⑮-|
31
口口口口 |----|
口口口口 |----|
口口口口 |----|
口口口口 |----|
32
①②口口 |--①-|
④⑤口口 |②-③-|
口③口口 |④-⑤-|
⑦⑥口口 |⑥-⑦-|
33
口口①口 |①---|
口口②口 |--②-|
口口③口 |----|
口口口口 |③---|
34
①②口口 |--①-|
④⑤口口 |②-③-|
口③口口 |④-⑤-|
⑦⑥口口 |⑥-⑦-|
35
口口①口 |①---|
口口口口 |----|
口口口口 |----|
口口口口 |----|
36
①②口口 |--①-|
④⑤口口 |②-③-|
口③口口 |④-⑤-|
⑦⑥口口 |⑥-⑦-|
37
口口①口 |①---|
口口②口 |--②-|
口口③口 |----|
口口口口 |③---|
38
①②口口 |--①-|
④⑤口口 |②-③-|
口③口口 |④-⑤-|
⑦⑥口口 |⑥-⑦-|
39
口口①① |①---|
口口口② |②---|
口口口③ |③---|
口口口④ |④---|
40
②③口① |①-②-|
⑤⑥口③ |③-④-|
口④口⑤ |⑤-⑥-|
⑧⑦口⑦ |⑦-⑧-|
41
口口①① |①---|
口口③② |②-③-|
口口⑤④ |④---|
口口口⑤ |⑤---|
42
②③口① |①-②-|
⑤⑥口③ |③-④-|
口④口⑤ |⑤-⑥-|
⑧⑦口⑦ |⑦-⑧-|
43
口口①① |①---|
口口口② |②---|
口口口③ |③---|
口口口④ |④---|
44
②③口① |①-②-|
⑤⑥口③ |③-④-|
口④口⑤ |⑤-⑥-|
⑧⑦口⑦ |⑦-⑧-|
45
⑫②①⑪ |①②③④|
⑥口口⑤ |--⑤⑥|
⑧④③⑦ |⑦⑧--|
⑩口口⑨ |⑨⑩⑪⑫|
46
口⑤⑤口 |--①②|
口口口口 |③④--|
⑤④③⑤ |⑤---|
口②①口 |----|
47
口口口口 |----|
口口口口 |----|
口口口口 |----|
口口口口 |----|
48
口⑦④① |①-②-|
⑦口口口 |③-④-|
②③④① |⑤-⑥-|
⑤⑥口口 |⑦---|
49
①⑪⑩② |①---|
⑨③⑫⑧ |②③④⑤|
口⑬④口 |⑥⑦⑧⑨|
⑤⑦⑥口 |⑩⑪⑫⑬|
50
口口口口 |①-②-|
⑦③口口 |③-④-|
②⑦④① |⑤-⑥-|
⑤⑥④① |⑦---|
51
③⑤④② |①---|
口⑧⑦口 |②③④⑤|
①口口口 |⑥-⑦-|
⑨口口⑥ |⑧-⑨-|
52
⑤⑥口口 |①-②-|
口口口④ |③-④-|
②③①④ |⑤-⑥-|
⑦⑦①口 |⑦---|
53
③口②口 |①---|
⑤①④口 |②③④⑤|
口口口口
口口口口

口口口口
口⑪口口
口⑦⑩⑥ |⑥⑦⑧⑨|
⑬⑨⑫⑧ |⑩⑪⑫⑬|
54
②⑥④① |①-②-|
③口口① |③-④-|
⑤⑦口④ |⑤-⑥-|
⑦口口口 |⑦---|
55
口⑧口⑦ |①②③④|
口②①口 |⑤⑥⑦⑧|
⑥口③口
口④口⑤

⑯口⑪口
⑩口⑮⑬
口⑫口⑨ |⑨⑩⑪⑫|
⑭口口口 |⑬⑭⑮⑯|
56
⑦⑤口口 |①-②-|
⑥②口口 |③-④-|
③⑦①④ |⑤-⑥-|
口口①④ |⑦---|
57
口口口口 |①---|
口口口① |②③④⑤|
口口口口
④⑤③②

⑬口⑦⑥
⑧⑨口⑫
⑪口口⑩ |⑥⑦⑧⑨|
口口口口 |⑩⑪⑫⑬|
58
⑦⑦④④ |①-②-|
⑤口①口 |③-④-|
⑥②①口 |⑤-⑥-|
口③口口 |⑦---|
59
口⑧口⑥ |①---|
口①口口 |②③④⑤|
⑨口⑦口 |⑥-⑦-|
③⑤④② |⑧-⑨-|
60
口口④口 |①-②-|
③②④① |③-④-|
⑦⑦口① |⑤-⑥-|
⑥⑤口口 |⑦---|
61
③⑤④② |①---|
口①口口 |②③④⑤|
口口口口
口口口口

口口口口
口⑬⑥口
口⑦⑫口 |⑥⑦⑧⑨|
⑨⑪⑩⑧ |⑩⑪⑫⑬|
62
口⑤口④ |①-②-|
②⑦④① |③-④-|
③⑥⑦① |⑤-⑥-|
口口口口 |⑦---|
63
④⑫③⑤ |①②③④|
⑥⑯⑪⑬ |⑤⑥⑦⑧|
⑭⑩⑮⑦ |⑨⑩⑪⑫|
⑧②⑨① |⑬⑭⑮⑯|
64
②⑫①⑤ |①②③④|
⑥口⑪⑬ |⑤⑥⑦⑧|
口⑩口⑦ |⑨⑩⑪⑫|
⑧④⑨③ |⑬---|
65
口⑩①口 |----|
②⑧⑤口 |①②③④|
⑫④⑪⑨ |⑤⑥⑦⑧|
⑥口⑦③ |⑨⑩⑪⑫|
66
②口口① |①---|
②③③① |--②-|
口口口口 |----|
③口口③ |③---|

不確定度: 0

最終更新:2014年08月02日 00:27