野球の遊び方 そしてその歴史 ~決定版~
あさき大監督

EXTREME

Level: 9
BPM: 141
Notes: 796

1
口口口口 |----|
口口口口 |----|
口口口口 |----|
口口口口 |----|
2
④④④① |①---|
④④④② |②---|
口④口③ |③---|
口口口口 |④---|
3
口口口口 |①---|
口口口口 |②---|
④口口口 |③---|
③②①口 |④---|
4
口③④② |①---|
①口口② |②---|
口口口② |③---|
口口口② |④---|
5
口口口① |①---|
口口口② |②---|
口口口③ |③---|
口口口④ |④---|
6
①①口口 |①---|
①①口口 |②---|
④口口口 |③---|
③②口口 |④---|
7
②口④口 |①---|
①口③口 |②---|
口③口③ |③---|
口口③口 |④---|
8
口口口① |①---|
口口口② |②---|
⑤⑥口③ |③---|
口口口④ |④-⑤⑥|
9
口②③口 |①--②|
口口口口 |--③-|
口口①口 |④---|
④口口④ |----|
10
①①④④ |①-②③|
口口口口 |④-⑤⑥|
口口⑥口
⑤②口③

口口⑩⑩
⑦⑧⑨口
口口口口 |⑦⑧⑨-|
口口口口 |--⑩-|
11
①②口口 |①-②-|
口④口④ |③-④-|
①②口口
口③口③

口口口⑤
口口口口
口⑦⑥⑤ |⑤---|
口口口口 |⑥-⑦-|
12
①①④④ |①-②③|
口口口口 |④-⑤⑥|
口口⑥口
⑤②口③

⑨口口⑨
⑦口口⑧
⑦口口⑧ |⑦-⑧-|
口口口口 |--⑨-|
13
口①口口 |①-②-|
②口②口 |③-④-|
④①④口
口③口③

口⑥口⑤
⑦口⑦口
口⑥口⑤ |⑤-⑥-|
⑧口⑧口 |⑦-⑧-|
14
⑤⑤①⑥ |①---|
口口口① |②---|
口口②⑥ |③④⑤-|
④口③② |--⑥-|
15
⑤⑤①⑥ |①---|
口口口① |②---|
口口②⑥ |③④⑤-|
④口③② |--⑥-|
16
口口③口 |①---|
口口②口 |②-③-|
口①①口
口口口口

口④口口
④口口⑦
口⑥⑤口 |④--⑤|
口口口口 |⑥-⑦-|
17
①⑨⑯⑧ |①②③④|
⑮⑦②⑩ |⑤⑥⑦⑧|
③⑪⑭⑥ |⑨⑩⑪⑫|
⑬⑤④⑫ |⑬⑭⑮⑯|
18
口口口口 |①---|
口①①口 |②---|
口口口口
口②②口

口口口口
口口④口
口口口③ |③---|
口口口口 |④---|
19
③④④口 |①---|
口②口口 |②---|
①口口口 |③---|
口口口口 |④---|
20
口口口① |①---|
口口口口 |②---|
②口口口
口②口口

③④口口
口③口口
⑤口③④ |③---|
口⑤口③ |④-⑤-|
21
口口①① |①---|
口口①① |----|
口口口口
口口口口

②③④⑤
口口口⑥
口口口⑦ |②③④⑤|
口口口⑧ |⑥⑦⑧-|
22
口口口口 |①-②-|
口①口口 |③-④-|
②③口口
④口口口

口口口口
口⑦⑥⑤
口口口口 |⑤⑥⑦-|
口⑧⑧口 |--⑧-|
23
②口⑥⑤ |①-②-|
①口口⑥ |③-④-|
⑦口口③ |⑤---|
⑤⑦口④ |⑥-⑦-|
24
⑧②口⑦ |①-②-|
口①④口 |③-④⑤|
口⑤③口 |⑥-⑦-|
口口⑥⑨ |⑧-⑨-|
25
口④口口 |①---|
④⑤口口 |②---|
⑤口口口 |③---|
①②③口 |④-⑤-|
26
口口④口 |①---|
口口⑤④ |②---|
口①⑥⑤ |③-④-|
①②③⑥ |⑤-⑥-|
27
①②口① |①---|
口口口口 |②-③-|
口③口口
口口口口

口口⑤⑤
口口⑤⑤
口口④⑤ |④---|
口口⑤⑤ |⑤---|
28
①①口口 |①---|
②②口⑤ |②--③|
⑥口口口 |④-⑤-|
口③④口 |--⑥-|
29
①③③② |①-②-|
③①②③ |--③-|
口②①口
②口口①

口口口口
口口口口
④口口④ |④---|
⑤④④⑤ |⑤---|
30
口①口口 |①-②-|
口②口口 |③-④-|
③③③口
口④口口

口⑥⑦口
口口⑤口
口⑧口口 |⑤-⑥-|
口口口口 |⑦-⑧-|
31
①③口② |①---|
①口口口 |②-③-|
①口口口
①②口③

口口④口
⑤⑤⑤口
⑥⑥⑥口 |④---|
口口④口 |⑤-⑥-|
32
③口口④ |①-②-|
口口口口 |③-④-|
口口口口
口①口②

⑥⑦口口
口⑤⑤口
口⑤⑤口 |⑤---|
口口口口 |--⑥⑦|
33
口口①② |①②③④|
口口口③ |⑤⑥⑦⑧|
口口口④
⑧⑦⑥⑤

⑪⑫⑬⑭
⑩口口⑮
⑨口口口 |⑨⑩⑪⑫|
口口口口 |⑬⑭⑮-|
34
口口口口 |①-②-|
④③③口 |③-④-|
口①①②
口口口口

口口⑥口
口口口⑥
⑧口口⑦ |⑤-⑥-|
口⑧⑦⑤ |⑦-⑧-|
35
④①口④ |①-②-|
①口②口 |③-④-|
口③口口
口口口口

口口⑦口
⑥⑧口⑦
口口⑧口 |⑤-⑥-|
⑤口口⑤ |⑦-⑧-|
36
③③⑨口 |①-②-|
④⑩⑤口 |③-④⑤|
①⑥口② |⑥-⑦-|
⑧①口⑦ |⑧-⑨⑩|
37
②③口② |①---|
口口口口 |②---|
口口①口 |----|
口口口③ |③---|
38
①④③② |①---|
口口口口 |②③④-|
口口口口
口口①口

口口口口
口口口口
⑤口口⑤ |⑤---|
⑥⑦⑧口 |⑥⑦⑧-|
39
口④③② |①---|
①口口① |②③④-|
⑤口口⑤ |⑤---|
⑥⑦⑧口 |⑥⑦⑧-|
40
口④③② |①---|
①口口① |②③④-|
⑤口口⑤ |⑤---|
⑥⑦⑧口 |⑥⑦⑧-|
41
口④③② |①---|
①⑧⑤① |②③④-|
口⑥⑨口 |⑤-⑥-⑦-|
口⑩⑦口 |⑧-⑨-⑩-|
42
①口口① |①-②-|
②口②③ |③-④-|
口④口④
口口口③

⑧口⑤口
口⑦口口
⑧口⑤口 |⑤-⑥-|
⑥⑦⑥口 |⑦-⑧-|
43
口①④① |①-②-|
③口③② |③-④-|
口口④口
口口口②

口⑥口⑧
口口口口
口⑥口⑧ |⑤-⑥-|
⑤⑦⑤⑦ |⑦-⑧-|
44
⑥⑦④⑤ |①---|
口①①口 |②-③-|
口口口口 |④-⑤-|
②③口口 |⑥-⑦-|
45
口口口口 |①②③④|
口②①口 |⑤-⑥⑦|
⑦④③⑥
口口⑤口

口⑧口口
⑩口口⑨
口⑫⑪口 |-⑧⑨⑩|
口⑭⑬口 |⑪⑫⑬⑭|
46
②④口④ |①---|
口口口口 |②---|
口口口① |③-④-|
③口③⑤ |--⑤-|
47
①口①③ |①---|
①①①口 |②--③|
①口①口
②口②口

口口口口
口⑥口口
口④⑤口 |④---|
口口口口 |--⑤⑥|
48
③口①② |①---|
④口口④ |----|
口口口口 |②-③-|
②口口③ |--④-|
49
③①①口 |①---|
⑤①②口 |--②-|
口②①④ |③---|
口①①③ |--④⑤|
50
口③口① |①---|
⑤③口⑤ |②---|
口③④口 |③-④-|
②③④② |--⑤-|
51
②口口② |①---|
口口④口 |--②-|
①⑤口① |③---|
③口口③ |--④⑤|
52
口口口口 |①---|
口口口口 |--②-|
口口口口
②口①②

口③④口
③④③④
⑤⑥⑤⑥ |③-④-|
口⑤⑥口 |⑤-⑥-|
53
①④③① |①---|
④⑥⑤③ |②-③-|
口⑧⑦口 |④-⑤⑥|
②⑩⑨② |⑦⑧⑨⑩|
54
④③①② |①-②-|
③⑥⑤① |③-④⑤|
⑧口口口 |⑥-⑦-|
⑦⑨⑨⑦ |⑧-⑨-|
55
口①①④ |①-②③|
口③⑥④ |④-⑤⑥|
口⑤②口
口口口口

⑦口⑩口
⑦口口口
口口⑩口 |⑦-⑧-|
口口⑨⑧ |⑨-⑩-|
56
口①口口 |①-②-|
④口口口 |③-④-|
③①口口
②口口口

⑦⑥⑥⑧
口口⑦⑤
口口口口 |⑤-⑥-|
⑧⑤口口 |⑦-⑧-|
57
口口③口 |①-②-|
口④口② |③-④-|
口口①①
口口①①

⑨⑦口口
⑥口口口
⑤⑤⑧口 |⑤-⑥-|
⑤⑤口口 |⑦-⑧⑨|
58
口口①② |①-②-|
口口口① |③-④-|
③口口口
④③口口

⑥口口口
口口⑤口
口⑤口⑦ |⑤-⑥-|
口⑧⑧⑥ |⑦-⑧-|
59
⑤①①④ |①-②-|
②③⑧口 |③-④-|
口⑨⑦⑥ |⑤-⑥-|
④口口⑤ |⑦-⑧⑨|
60
②口口③ |①-②-|
口口口口 |③-④-|
口口口口
④口①④

口⑤⑥口
⑤⑥⑤⑥
⑦⑧⑦⑧ |⑤-⑥-|
口⑦⑧口 |⑦-⑧-|
61
②⑧⑦① |①②③④|
口⑥⑤口 |⑤⑥⑦⑧|
口口口口
④口口③

口口口⑩
口口口口
口口⑨口 |⑨---|
口⑩口口 |⑩---|
62
①口③口 |①---|
③②口口 |----|
口口②③ |②---|
口③①口 |③---|
63
口②口① |①②③④|
口④口③ |⑤⑥⑦⑧|
⑥口⑤口
⑧口⑦口

口⑫口口
⑫口⑨口
口⑩口⑪ |⑨⑩⑪-|
口口口⑪ |--⑫-|
64
口口①口 |①-②③|
口③②① |④⑤⑥⑦|
口口口口
⑤⑦⑥④

⑨⑨⑪⑪
⑬口口⑫
口⑩⑧口 |⑧⑨-⑩|
口口口口 |⑪-⑫⑬|
65
口口口口 |①②③④|
口口口口 |⑤⑥⑦⑧|
⑧⑦⑥⑤
④③②①

口口⑪⑪
⑩口口⑨
口口口口 |⑨⑩⑪-|
⑫⑫口口 |--⑫-|
66
⑧口口口 |①②③④|
④⑦⑥口 |⑤⑥⑦⑧|
口③②⑤
口口口①

口⑩⑨口
⑯口口⑮
⑭口⑬口 |⑨⑩⑪⑫|
口⑫口⑪ |⑬⑭⑮⑯|
67
⑧④口⑨ |--①②|
⑩口③⑦ |③④--|
⑥②口⑪ |⑤⑥⑦⑧|
⑫口①⑤ |⑨⑩⑪⑫|
68
⑧④⑦⑨ |--①②|
口口③⑩ |③④--|
⑥②⑤⑪ |⑤⑥⑦⑧|
⑫口①口 |⑨⑩⑪⑫|
69
口⑤口口 |①②③④|
⑧④⑥口 |⑤⑥⑦⑧|
口③⑦口
口①②口

⑨口⑪⑩
口口口⑭
口⑯口⑮ |⑨⑩⑪⑫|
⑫⑬口口 |⑬⑭⑮⑯|
70
口③口⑥ |①②③④|
⑤⑦②口 |⑤⑥⑦⑧|
①口⑧口
口口口④

⑪口⑫口
口口⑯⑩
⑮⑬口口 |⑨⑩⑪⑫|
⑨口⑭口 |⑬⑭⑮⑯|
71
口①口口 |①---|
①口口口 |----|
口口口口
口口口口

⑤⑨⑧④
⑨口口⑧
⑦口口⑥ |②③④⑤|
③⑦⑥② |⑥⑦⑧⑨|
72
口口口口 |--①-|
口①①口 |----|
口①①口 |----|
口口口口 |----|
73
口①口口 |-①--|
口①口口 |----|
口①口口 |----|
口①口口 |----|

不確定度: 0

最終更新:2014年07月27日 02:31