デッドボヲルdeホームラン
猫叉Masterβ2

EXTREME

Level: 9
BPM: 145
Notes: 713

1
口口口口 |----|
口口口口 |----|
口口口口 |----|
口口口口 |----|
2
①口口② |①---|
口③口口 |----|
口口口口 |----|
口口口口 |---②-③|
3
②⑤口口 |①-②-|
③口①④ |③--④-⑤|
口口口口
口口口口

口口⑥口
口⑦⑧口
口⑨⑩口 |⑥-⑦⑧-⑨|
⑬⑪⑫口 |⑩-⑪⑫-⑬|
4
②口口口 |①-②-|
⑥④⑦⑦ |③-④-|
⑧⑧⑤③ |⑤-⑥-|
口口口① |⑦-⑧-|
5
口口口③ |①-②-|
④口口口 |③-④-|
口口口口
②口①①

口⑥口口
口口口口
⑧⑧口⑤ |⑤-⑥-|
口口⑦⑦ |⑦-⑧-|
6
口口口③ |①-②-|
④口①① |③-④-|
口口口口
②口口口

口口口口
口口⑦⑦
⑧⑧口⑤ |⑤-⑥-|
口⑥口口 |⑦-⑧-|
7
②④口口 |①-②-|
④②口口 |③-④-|
口口口③
口口①①

口口口口
口口口⑤
⑧⑦⑥口 |⑤-⑥-|
口⑧⑦⑥ |⑦-⑧-|
8
①②口① |①-②-|
⑤⑧⑥⑦ |③-④-|
口⑥⑧④ |⑤-⑥-|
③口口③ |⑦-⑧-|
9
①②口① |①-②-|
⑤⑧⑥⑦ |③-④-|
口⑥⑧④ |⑤-⑥-|
③口口③ |⑦-⑧-|
10
①②口① |①-②-|
⑤⑧⑥⑦ |③-④-|
口⑥⑧④ |⑤-⑥-|
③口口③ |⑦-⑧-|
11
①②③④ |①-②-|
⑦⑦⑤⑥ |③-④-|
⑤⑥⑥⑤ |⑤-⑥-|
⑥⑤⑦⑦ |⑦---|
12
①④⑤① |①-②-|
⑦口③口 |③-④-|
②口口口 |⑤-⑥-|
⑧口⑥口 |⑦-⑧-|
13
⑥口口① |①-②③|
口口口口 |④⑤⑥-|
②③④⑤
口口口口

口⑬⑫⑪
⑩⑨⑧⑦
口口口口 |⑦⑧⑨⑩⑪⑫|
口口口⑭ |⑬-⑭-|
14
①④口口 |①-②-|
口口口口 |③-④-|
口口③口
口②口口

⑧口⑤口
口口口口
口⑩⑨⑦ |⑤-⑥-|
口口⑥口 |⑦⑧⑨⑩|
15
口②④⑥ |①-②③|
口③⑤口 |④⑤⑥-|
口口口口
口口口①

口口口口
口口口口
⑦⑨⑪⑬ |⑦⑧⑨⑩|
⑧⑩⑫⑭ |⑪⑫⑬⑭|
16
①④⑤① |①-②-|
⑦口③⑦ |③-④-|
②口口口 |⑤-⑥-|
⑧⑥⑥⑧ |⑦-⑧-|
17
⑥①口① |①-②③|
口口口口 |④⑤⑥-|
②③④⑤
口口口口

口⑬⑫⑪
⑩⑨⑧⑦
口口口口 |⑦⑧⑨⑩⑪⑫|
口口口⑭ |⑬-⑭-|
18
①④口口 |①-②-|
口口口口 |③-④-|
口口③口
口②口口

⑧口⑤口
口口口口
口⑩⑨⑦ |⑤-⑥-|
口口⑥口 |⑦⑧⑨⑩|
19
口②④⑥ |①-②③|
口③⑤口 |④⑤⑥-|
口口口口
口口口①

⑭口⑮口
⑯口口口
口⑪⑫⑬ |⑦⑧⑨⑩⑪⑫|
⑦⑧⑨⑩ |⑬⑭⑮⑯|
20
口②口② |①-②-|
口口①口 |--③-|
口③口③
口口口口

口口④口
⑤口⑥口
口口口口 |--④-|
口口口口 |⑤-⑥-|
21
②口口口 |①-②③|
口③口口 |④⑤⑥-|
④①口口
⑥⑤口口

口口⑪⑦
口⑫⑧口
口口⑬⑨ |⑦⑧⑨⑩|
口⑭⑩口 |⑪⑫⑬⑭|
22
口②口② |①-②-|
④⑤⑥口 |--③-|
口③口③ |--④-|
口口口① |⑤-⑥-|
23
口口口① |①--②③④|
⑩⑪⑫⑬ |⑤--⑥⑦⑧|
⑥⑦⑧⑨ |⑨--⑩⑪⑫|
②③④⑤ |⑬---|
24
③①①④ |①-②-|
⑤口⑦⑥ |---③④⑤|
⑧口口口 |⑥-⑦-|
口口⑨② |⑧-⑨-|
25
③④口口 |①-②-|
⑤⑥口口 |③④⑤⑥|
口①口口
口口口②

口口⑦⑧
口口⑨⑩
口⑪⑫口 |⑦⑧⑨⑩|
口⑬⑭口 |⑪⑫⑬⑭|
26
口②②口 |①---|
口口口口 |②---|
口③④口 |--③-|
①口口口 |--④-|
27
①①②② |①-②-|
①口口② |③-④-|
④口口③
④④③③

口⑦⑦口
口⑥⑤口
口⑥⑤口 |⑤-⑥-|
口口口口 |⑦---|
28
①④⑤① |①-②-|
⑦口③口 |③-④-|
②口口口 |⑤-⑥-|
⑧口⑥口 |⑦-⑧-|
29
⑥口口① |①-②③|
口口口口 |④⑤⑥-|
②③④⑤
口口口口

口⑬⑫⑪
⑩⑨⑧⑦
口口口口 |⑦⑧⑨⑩⑪⑫|
口口口⑭ |⑬-⑭-|
30
①④口口 |①-②-|
口口口口 |③-④-|
口口③口
口②口口

⑧口⑤口
口口口口
口⑩⑨⑦ |⑤-⑥-|
口口⑥口 |⑦⑧⑨⑩|
31
口②④⑥ |①-②③|
口③⑤口 |④⑤⑥-|
口口口口
口口口①

口口口口
口口口口
⑦⑨⑪⑬ |⑦⑧⑨⑩|
⑧⑩⑫⑭ |⑪⑫⑬⑭|
32
①⑤口③ |①-②-|
④口⑦② |③-④-|
口⑥口⑥ |⑤----⑥|
口口口口 |--⑦-|
33
①口⑤③ |①-②-|
④⑦口② |③-④-|
⑥口⑥口 |⑤----⑥|
口口口口 |--⑦-|
34
①③①③ |---①--|
⑤④②④ |--②---|
口①③⑤ |③----④|
⑤②④② |---⑤--|
35
口②口口 |--①---|
口③①③ |②----③|
②口②口
口①③①

⑤口口⑤
口口口口
口④口④ |--④-|
⑥口口⑥ |⑤-⑥-|
36
口口口口 |①---|
①口①口 |----|
①口①口 |----|
口②②口 |--②---|
37
①口口① |①---|
②口口② |②---|
口口口口
口口口口

⑥口口⑥
口口口口
⑤④③口 |③-④-|
口⑤④③ |⑤-⑥---|
38
口口口口 |①---|
口①①口 |----|
口②②口 |----|
口口口口 |--②---|
39
口口口口 |①---|
①口口① |②---|
口口口口
②口口②

③④⑤口
口⑧⑦⑥
口口口口 |③-④-⑤-|
口口口口 |⑥-⑦-⑧-|
40
口口④② |①-②-|
口口口口 |③-④-|
口①①口
口口③口

口⑥口口
口口口口
口⑧⑧口 |⑤-⑥-|
⑦⑤口口 |⑦-⑧---|
41
⑥口口⑥ |①---|
①②②① |②---|
⑤④③口 |③-④-|
口⑤④③ |⑤-⑥---|
42
口⑥④口 |①-②-|
口①①② |③-④-|
口⑤口⑦ |⑤-⑥-|
③⑧⑧口 |⑦-⑧---|
43
①④④① |①---|
④口口④ |②---|
③②②③ |--③-|
口③③口 |--④---|
44
①口口① |①---|
口③②口 |②-③-|
口①①口 |----|
口口口口 |----|
45
口①口口 |----|
口⑤口口 |①-②-|
口口口② |③--④|
口③口④ |--⑤-|
46
②口①口 |①---|
口口口口 |--②-|
口口口口 |----|
口口口口 |----|
47
口口口口 |--①-|
口⑧口① |②③④⑤⑥---|
②③④⑤ |⑦---|
⑥口口⑦ |⑧---|
48
②口口口 |--①-|
口⑤④③ |②---③④⑤-|
口口口口
口口口①

口⑧口口
口口口口
口口⑦口 |--⑥-|
⑥口口⑨ |⑦-⑧⑨|
49
口口⑤① |--①---|
④口口口 |②-③-|
口口口口 |-④-⑤|
②口③口 |----|
50
⑪⑦⑧⑪ |①②③④|
⑦⑤⑥⑧ |⑤⑥-⑦|
⑨③④⑩ |-⑧-⑨|
⑨①②⑩ |⑩-⑪-|
51
口④⑤口 |①-②-|
口①②口 |③-④⑤|
④③③⑤
口①②口

⑥口口⑦
⑥口口⑦
口口口口 |⑥-⑦-|
⑧⑧⑨⑨ |⑧-⑨-|
52
②口口③ |①-②-|
口口口口 |--③-|
口①①口
口口口口

⑥⑤④口
口口⑦口
口口口口 |④-⑤-|
口口口口 |⑥-⑦-|
53
口口口口 |①---|
口①口口 |②-③-|
口口口②
③口口口

④口⑦口
口⑧口口
口⑥⑤口 |④-⑤⑥|
口口⑨口 |-⑦⑧⑨|
54
③口口② |①---|
①④②口 |--②-|
①口⑤口 |--③-|
口口口口 |④-⑤-|
55
口⑤口口 |①②③④|
①口⑥口 |⑤⑥⑦⑧|
⑦口口②
口③④⑧

口口⑫⑯
⑮⑪口口
口⑨⑩⑭ |⑨⑩⑪⑫|
⑬口口口 |⑬⑭⑮⑯|
56
①口口口 |①-②③|
口⑥⑦口 |④⑤⑥⑦|
口④⑤口
口②③口

⑫⑭⑮⑬
口口口口
⑩口口⑪ |⑧⑨⑩⑪|
⑧口口⑨ |⑫⑬⑭⑮|
57
口口口口 |①②③④|
⑤口口⑥ |⑤⑥⑦⑧|
⑦③④⑧
口①②口

⑭⑮⑯口
口⑨口口
口口口口 |⑨--⑩⑪⑫|
⑩⑪⑫⑬ |⑬--⑭⑮⑯|
58
口口口① |①---②③--|
③②口口 |④⑤--⑥⑦--|
⑤④口口
⑦⑥口口

口口⑭⑮
口口⑫⑬
口口⑩⑪ |⑧⑨--⑩⑪--|
口口⑧⑨ |⑫⑬--⑭⑮--|
59
①④口口 |①---|
④①口口 |②-③④|
②口口③ |----|
口②③口 |----|
60
①口③① |①----②|
③口①③ |---③--|
口②口口
②口口②

⑤口口口
口⑤⑤口
④⑥⑥④ |--④---|
口④口⑥ |⑤----⑥|
61
口①①口 |---①--|
口口口① |--②---|
②口口口
口②②口

③⑤口③
④口口⑤
口⑤口③ |③----④|
④口口④ |---⑤--|
62
②口口② |--①---|
口③①口 |②----③|
①口②口
③口①③

口④口口
④口口⑤
⑤口口④ |---④--|
口⑤口口 |--⑤---|
63
②②①① |①---|
口④③口 |②---|
口①②口 |③---|
③③④④ |④---|
64
②②②① |①---|
③③②① |②---|
③④①① |③---|
③④④④ |④---|
65
口口①口 |----|
口口口口 |----|
口口口口 |①---|
口口口口 |----|

不確定度: 0

最終更新:2014年07月27日 02:30