アルストロメリア
TAG

EXTREME

Level: 9
BPM: 144
Notes: 764

1
口口口口 |----|
口口口口 |----|
口口口口 |----|
口口口口 |----|
2
口①①口 |①-②③|
口口口口 |④⑤⑥⑦|
③⑦口④
②⑤⑥②

⑭⑪⑫⑭
口⑨⑩口
口口⑧口 |⑧⑨⑩⑪|
⑬口口⑬ |⑫⑬-⑭|
3
⑭⑪⑫⑭ |-①②③|
⑦⑨⑩⑧ |④⑤⑥⑦|
⑤③④⑥ |⑧⑨⑩⑪|
⑬①②⑬ |⑫⑬-⑭|
4
⑪⑬⑭⑫ |-①②③|
⑨⑦⑧⑩ |④⑤⑥⑦|
③⑤⑥④ |⑧⑨⑩⑪|
⑮①②⑮ |⑫⑬⑭⑮|
5
②口口① |----|
口口口口 |----|
口①②口 |①---|
口口口口 |②---|
6
口①①口 |①-②③|
口口口口 |④⑤⑥⑦|
③⑦口④
②⑤⑥②

⑭⑪⑫⑭
口⑨⑩口
口口⑧口 |⑧⑨⑩⑪|
⑬口口⑬ |⑫⑬-⑭|
7
⑭⑪⑫⑭ |-①②③|
⑦⑨⑩⑧ |④⑤⑥⑦|
⑤③④⑥ |⑧⑨⑩⑪|
⑬①②⑬ |⑫⑬-⑭|
8
口口口口 |-①②③|
口⑦口口 |④⑤⑥⑦|
③⑤⑥④
口①②口

⑪⑬⑭⑫
⑨口⑧⑩
⑮口口⑮ |⑧⑨⑩⑪|
口口口口 |⑫⑬⑭⑮|
9
口口口口 |----|
口口口口 |----|
口口口口 |----|
口口口口 |----|
10
①口口口 |①--②|
口②①口 |--③-|
③口口② |----|
口口③口 |----|
11
口口④④ |--①-|
口口②口 |-②--|
口口③③ |③--④|
口口①口 |----|
12
①口口口 |①--②|
口②①口 |--③-|
③口口② |----|
口口③口 |----|
13
口口④④ |--①-|
口口②口 |-②--|
口口③③ |③--④|
口口①口 |----|
14
①口口口 |①--②|
⑥②①口 |--③-|
③口⑤② |--④-|
④口③口 |⑤-⑥-|
15
口口③口 |①-②③|
口④②口 |-④-⑤|
①①口口
口口⑤口

口口口口
⑥⑦口口
口口口口 |----|
口口口口 |--⑥⑦|
16
②口口③ |①--②|
⑥口①⑥ |--③-|
口口口口 |④--⑤|
⑤口口④ |---⑥|
17
口口口口 |----|
口口口口 |----|
①口③口 |--①-|
口②口口 |②-③-|
18
口③④⑤ |①--②|
口口②口 |--③-|
口①口口 |----|
口口口口 |--④⑤|
19
口口口口 |----|
口口④口 |--①-|
口①⑤③ |②-③-|
口口②口 |④-⑤-|
20
口②口口 |①--②|
口口④① |--③-|
③口⑤口 |----|
口口口口 |--④⑤|
21
口口口口 |①---|
口④口口 |----|
口口③口 |--②-|
口②①口 |③-④-|
22
②口①口 |①---|
口口①口 |--②-|
口口口口
口口口口

口③⑥⑥
口口④⑤
口口口口 |③-④-|
口口口口 |⑤-⑥-|
23
⑤口⑤口 |--①-|
口口口口 |--②-|
①④②口 |--③-|
口③口口 |④--⑤|
24
口口口口 |----|
⑤④③② |--①-|
口①口口 |②-③-|
口口口口 |④-⑤-|
25
口口口口 |①--②|
口口口口 |--③-|
③③④④ |④---|
①口口② |----|
26
口①口⑥ |①---|
口⑤①⑥ |--②-|
③④口口 |③-④-|
②口口口 |⑤-⑥-|
27
口口口口 |----|
口口②口 |----|
①口口口 |----|
口口口口 |①--②|
28
口口④口 |----|
口③口口 |--①-|
⑤口②口 |②-③-|
口①口口 |④-⑤-|
29
口口口口 |①--②|
⑥⑦②② |--③④|
⑤④③口 |⑤---|
口口①① |--⑥⑦|
30
口口①① |①--②|
口口口口 |--③④|
口口②②
口④③口

⑥口口⑥
⑥口口⑥
口口口口 |⑤---|
⑤口口口 |---⑥|
31
口口口口 |----|
口口口口 |----|
口口口口 |----|
口口口口 |----|
32
①口④口 |①②③④|
⑦口口口 |⑤⑥⑦⑧|
⑤口②⑧
③口口⑥

⑪⑬⑭口
口⑮⑯⑩
口口口口 |⑨⑩⑪⑫|
口⑨⑫口 |⑬⑭⑮⑯|
33
⑦口口② |①②③④|
③口口⑥ |⑤⑥⑦⑧|
口⑤口口
①口⑧④

口⑬⑭口
口⑮⑯口
⑨口⑩⑫ |⑨⑩⑪⑫|
⑪口口口 |⑬⑭⑮⑯|
34
③口⑧① |①②③④|
口口口⑥ |⑤⑥⑦⑧|
⑤②口口
口⑦④口

⑯⑬口⑭
⑨口口口
口⑮⑫口 |⑨⑩⑪⑫|
⑪口口⑩ |⑬⑭⑮⑯|
35
口口口口 |①---|
②口④① |--②-|
②口口① |----|
口③口口 |③-④-|
36
①口④口 |①②③④|
⑦口口口 |⑤⑥⑦⑧|
⑤口②⑧
③口口⑥

⑪⑬⑭口
口⑮⑯⑩
口口口口 |⑨⑩⑪⑫|
口⑨⑫口 |⑬⑭⑮⑯|
37
⑦口口② |①②③④|
③口口⑥ |⑤⑥⑦⑧|
口⑤口口
①口⑧④

口⑬⑭口
口⑮⑯口
⑨口⑩⑫ |⑨⑩⑪⑫|
⑪口口口 |⑬⑭⑮⑯|
38
③口⑧① |①②③④|
口口口⑥ |⑤⑥⑦⑧|
⑤②口口
口⑦④口

⑯⑬口⑭
⑨口口口
口⑮⑫口 |⑨⑩⑪⑫|
⑪口口⑩ |⑬⑭⑮⑯|
39
口④④口 |①--②|
口①①口 |--③-|
②口口② |④---|
口③③口 |----|
40
①口④① |①--②|
②口⑤② |--③-|
③口⑥③ |④--⑤|
口口口口 |--⑥-|
41
口⑦⑥① |①-②③|
口⑥⑦③ |-④⑤-|
口④⑧⑤ |⑥--⑦|
口②口口 |--⑧-|
42
①口④① |①--②|
②口⑤② |--③-|
③口⑥③ |④--⑤|
口口口口 |--⑥-|
43
口⑦⑥① |①-②③|
口⑥⑦③ |-④⑤-|
口④⑧⑤ |⑥--⑦|
口②口口 |--⑧-|
44
①口④① |①--②|
②口⑤② |--③-|
③口⑥③ |④--⑤|
口口口口 |--⑥-|
45
口⑦⑥① |①-②③|
口⑥⑦③ |-④⑤-|
口④⑧⑤ |⑥--⑦|
口②口口 |--⑧-|
46
①④④① |①--②|
②⑤⑤② |--③-|
③⑥⑥③ |④--⑤|
口口口口 |--⑥-|
47
口口口口 |①--②|
②④④② |--③-|
③⑤⑤③ |④--⑤|
①⑥⑥① |--⑥-|
48
③③③③ |①---|
口口口口 |--②-|
口②②口 |----|
①口口① |---③|
49
口口口口 |----|
口口口口 |----|
口口口口 |----|
口口口口 |----|
50
①口④口 |①②③④|
⑦口口口 |⑤⑥⑦⑧|
⑤口②⑧
③口口⑥

⑪⑬⑭口
口⑮⑯⑩
口口口口 |⑨⑩⑪⑫|
口⑨⑫口 |⑬⑭⑮⑯|
51
⑦口口② |①②③④|
③口口⑥ |⑤⑥⑦⑧|
口⑤口口
①口⑧④

口⑬⑭口
口⑮⑯口
⑨口⑩⑫ |⑨⑩⑪⑫|
⑪口口口 |⑬⑭⑮⑯|
52
③口⑧① |①②③④|
口口口⑥ |⑤⑥⑦⑧|
⑤②口口
口⑦④口

⑯⑬口⑭
⑨口口口
口⑮⑫口 |⑨⑩⑪⑫|
⑪口口⑩ |⑬⑭⑮⑯|
53
口口口口 |①---|
②口④① |--②-|
②口口① |----|
口③口口 |③-④-|
54
①口④口 |①②③④|
⑦口口口 |⑤⑥⑦⑧|
⑤口②⑧
③口口⑥

⑪⑬⑭口
口⑮⑯⑩
口口口口 |⑨⑩⑪⑫|
口⑨⑫口 |⑬⑭⑮⑯|
55
⑦口口② |①②③④|
③口口⑥ |⑤⑥⑦⑧|
口⑤口口
①口⑧④

口⑬⑭口
口⑮⑯口
⑨口⑩⑫ |⑨⑩⑪⑫|
⑪口口口 |⑬⑭⑮⑯|
56
③口⑧① |①②③④|
口口口⑥ |⑤⑥⑦⑧|
⑤②口口
口⑦④口

⑯⑬口⑭
⑨口口口
口⑮⑫口 |⑨⑩⑪⑫|
⑪口口⑩ |⑬⑭⑮⑯|
57
口口口口 |①--②|
口①①口 |--③④|
②口④②
口③口口

口⑤⑤口
口口⑦口
口⑥口口 |⑤---|
口口口口 |--⑥⑦|
58
①口④口 |①②③④|
⑦口口口 |⑤⑥⑦⑧|
⑤口②⑧
③口口⑥

⑪⑬⑭口
口⑮⑯⑩
口口口口 |⑨⑩⑪⑫|
口⑨⑫口 |⑬⑭⑮⑯|
59
⑦口口② |①②③④|
③口口⑥ |⑤⑥⑦⑧|
口⑤口口
①口⑧④

口⑬⑭口
口⑮⑯口
⑨口⑩⑫ |⑨⑩⑪⑫|
⑪口口口 |⑬⑭⑮⑯|
60
③口⑧① |①②③④|
口口口⑥ |⑤⑥⑦⑧|
⑤②口口
口⑦④口

⑯⑬口⑭
⑨口口口
口⑮⑫口 |⑨⑩⑪⑫|
⑪口口⑩ |⑬⑭⑮⑯|
61
口口口口 |①---|
②口④① |--②-|
②口口① |----|
口③口口 |③-④-|
62
①口④口 |①②③④|
⑦口口口 |⑤⑥⑦⑧|
⑤口②⑧
③口口⑥

⑪⑬⑭口
口⑮⑯⑩
口口口口 |⑨⑩⑪⑫|
口⑨⑫口 |⑬⑭⑮⑯|
63
⑦口口② |①②③④|
③口口⑥ |⑤⑥⑦⑧|
口⑤口口
①口⑧④

口⑬⑭口
口⑮⑯口
⑨口⑩⑫ |⑨⑩⑪⑫|
⑪口口口 |⑬⑭⑮⑯|
64
③口⑧① |①②③④|
口口口⑥ |⑤⑥⑦⑧|
⑤②口口
口⑦④口

⑯⑬口⑭
⑨口口口
口⑮⑫口 |⑨⑩⑪⑫|
⑪口口⑩ |⑬⑭⑮⑯|
65
口口口口 |①--②|
②口口② |--③-|
①口口①
口③③口

口口口⑤
口④④⑥
口口口⑦ |④---|
口口口⑧ |⑤⑥⑦⑧|
66
口①①口 |①-②③|
口⑥⑦口 |④⑤⑥⑦|
口④⑤口
口②③口

⑭⑬⑬⑭
⑫口口口
⑩口口⑪ |⑧⑨⑩⑪|
⑧口口⑨ |⑫⑬-⑭|
67
⑭⑪⑫⑭ |-①②③|
⑦⑨⑩⑧ |④⑤⑥⑦|
⑤③④⑥ |⑧⑨⑩⑪|
⑬①②⑬ |⑫⑬-⑭|
68
⑪⑬⑭⑫ |-①②③|
⑨⑦⑧⑩ |④⑤⑥⑦|
③⑤⑥④ |⑧⑨⑩⑪|
⑮①②⑮ |⑫⑬⑭⑮|
69
②口口① |----|
口口口口 |----|
口①②口 |①---|
口口口口 |②---|
70
口①①口 |①-②③|
口口口口 |④⑤⑥⑦|
③⑦口④
②⑤⑥②

⑭⑪⑫⑭
口⑨⑩口
口口⑧口 |⑧⑨⑩⑪|
⑬口口⑬ |⑫⑬-⑭|
71
⑭⑪⑫⑭ |-①②③|
⑦⑨⑩⑧ |④⑤⑥⑦|
⑤③④⑥ |⑧⑨⑩⑪|
⑬①②⑬ |⑫⑬-⑭|
72
口⑦口口 |-①②③|
口⑤⑥口 |④⑤⑥⑦|
口③④口
口①②口

⑨口⑧⑩
⑪口口⑫
⑬⑮⑮⑭ |⑧⑨⑩⑪|
口⑮⑮口 |⑫⑬⑭⑮|


不确定度: 0

最終更新:2012年11月08日 18:16