Squeeze
VENUS feat. Mutsuhiko Izumi

EXTREME

Level: 10
BPM: 173
Notes: 751

1
口口口口 |----|
口口口口 |----|
口口口口 |----|
口口口口 |----|
2
口⑥⑦口 |①②③④|
⑤口口口 |⑤-⑥⑦|
③口口④
①口口②

口口口口
口⑧⑨口
口口口口 |-⑧⑨-|
⑩⑪⑫⑬ |⑩⑪⑫⑬|
3
⑤③④⑨ |①②③④|
⑥口口⑩ |----|
⑦①②⑪ |⑤⑥⑦⑧|
⑧口口⑫ |⑨⑩⑪⑫|
4
⑤④④口 |①-②-|
⑥③③⑧ |③-④-|
⑦②②⑧ |⑤⑥⑦-|
口①①口 |⑧---|
5
口口口口 |①---|
口口口口 |----|
口①①口
①口口①

口口②②
口口口②
口口口口 |----|
②口口口 |②---|
6
⑤口口⑨ |①②③④|
⑥③④⑩ |----|
⑦①②⑪ |⑤⑥⑦⑧|
⑧口口⑫ |⑨⑩⑪⑫|
7
⑥③⑦口 |①②③④|
⑩⑤②⑪ |⑤-⑥⑦|
口⑧口⑨ |-⑧⑨-|
⑫①④⑬ |⑩⑪⑫⑬|
8
⑤⑪⑩⑥ |①②③④|
⑬①②⑩ |⑤⑥⑦⑧|
⑦⑨⑫⑧ |⑨-⑩-|
口③④⑭ |⑪⑫⑬⑭|
9
④⑥⑤口 |①-②-|
⑥③口⑤ |③-④-|
②口口口 |⑤-⑥-|
①⑦⑦口 |⑦---|
10
⑤口口⑨ |①②③④|
⑥③④⑩ |----|
⑦①②⑪ |⑤⑥⑦⑧|
⑧口口⑫ |⑨⑩⑪⑫|
11
⑥③⑦口 |①②③④|
⑩⑤②⑪ |⑤-⑥⑦|
口⑧口⑨ |-⑧⑨-|
⑫①④⑬ |⑩⑪⑫⑬|
12
⑤⑪⑩⑥ |①②③④|
⑬①②⑩ |⑤⑥⑦⑧|
⑦⑨⑫⑧ |⑨-⑩-|
口③④⑭ |⑪⑫⑬⑭|
13
⑥口⑤⑦ |①②③-|
⑧④⑤⑨ |④-⑤-|
⑩④口口 |⑥⑦⑧⑨|
①②③口 |⑩---|
14
⑨①⑤⑬ |①②③④|
⑩②⑥⑭ |⑤⑥⑦⑧|
⑪③⑦⑮ |⑨⑩⑪⑫|
⑫④⑧⑯ |⑬⑭⑮⑯|
15
⑥③⑦口 |①②③④|
⑩⑤②⑪ |⑤-⑥⑦|
口⑧口⑨ |-⑧⑨-|
⑫①④⑬ |⑩⑪⑫⑬|
16
⑤⑪⑩⑥ |①②③④|
⑬①②⑩ |⑤⑥⑦⑧|
⑦⑨⑫⑧ |⑨-⑩-|
口③④⑭ |⑪⑫⑬⑭|
17
④⑥⑤口 |①-②-|
⑥③口⑤ |③-④-|
②口口口 |⑤-⑥-|
①⑦⑦口 |⑦---|
18
⑤口口⑨ |①②③④|
⑥③④⑩ |----|
⑦①②⑪ |⑤⑥⑦⑧|
⑧口口⑫ |⑨⑩⑪⑫|
19
⑥③⑦口 |①②③④|
⑩⑤②⑪ |⑤-⑥⑦|
口⑧口⑨ |-⑧⑨-|
⑫①④⑬ |⑩⑪⑫⑬|
20
⑤⑪⑩⑥ |①②③④|
⑬①②⑩ |⑤⑥⑦⑧|
⑦⑨⑫⑧ |⑨-⑩-|
口③④⑭ |⑪⑫⑬⑭|
21
⑥口⑤⑦ |①②③-|
⑧④⑤⑨ |④-⑤-|
⑩④口口 |⑥⑦⑧⑨|
①②③口 |⑩---|
22
口口口口 |①---|
口①口口 |----|
口口①口 |----|
口①口口 |----|
23
口口口口 |①---|
口③口口 |--②-|
口口②口 |----|
①口口口 |③---|
24
口口①口 |①---|
口口口① |----|
口口口口 |----|
口口口口 |----|
25
口口口口 |①---|
口③口口 |--②-|
口口口② |----|
口①口口 |③---|
26
①口口① |①---|
②口口③ |--②-|
③口口② |----|
口口口口 |③---|
27
③口口③ |①---|
口口口口 |--②-|
口①②口 |----|
口②①口 |③---|
28
口口①口 |①---|
口②口口 |--②-|
③口口口 |----|
口口口口 |③---|
29
口口口口 |①---|
口口口口 |----|
口口口口 |----|
口口①① |----|
30
口口口② |①---|
口①口口 |----|
口口①口 |②---|
口①口口 |----|
31
口口口④ |①-②-|
口⑤口口 |--③-|
口口③口 |④---|
①②口口 |⑤---|
32
口口①② |①---|
口口口① |----|
口口口口 |②---|
①口口口 |----|
33
口口口④ |①-②-|
口⑥口口 |--③-|
口①口③ |④-⑤-|
口②⑤口 |⑥---|
34
口①①③ |①---|
②口口④ |--②-|
④口口② |③---|
口口口口 |④---|
35
口口口⑤ |①-②-|
⑥④口口 |--③④|
口①口⑥ |⑤---|
②口①③ |⑥---|
36
口口①③ |①---|
口②口口 |--②-|
④口口口 |③---|
口口口口 |④---|
37
口⑥⑥④ |①-②-|
口口口口 |--③-|
口口口⑤ |④-⑤-|
②③①① |⑥---|
38
口口口口 |①---|
口口口口 |----|
口①①口 |----|
口口口口 |----|
39
口口③② |①-②③|
口口⑥⑤ |④-⑤⑥|
④口口口
①口口口

口口口口
⑦口口口
口口口口 |⑦---|
⑩⑨⑧口 |⑧⑨⑩-|
40
②③口口 |①-②③|
⑤⑥口⑦ |④-⑤⑥|
口⑧⑨④ |⑦---|
口⑩⑪① |⑧⑨⑩⑪|
41
口③②口 |①-②③|
口⑥⑤口 |④-⑤⑥|
④口口口
①口口口

口口口口
⑦口口⑪
口⑨⑩口 |⑦---|
⑧口口口 |⑧⑨⑩⑪|
42
口②③口 |①-②③|
口⑤⑥口 |④-⑤⑥|
口口口④
口口口①

⑦口口⑧
⑦口口⑧
口口口口 |⑦---|
⑦⑦⑧⑧ |⑧---|
43
⑩③②口 |①-②③|
⑦⑥⑤口 |④-⑤⑥|
①⑨⑧口 |⑦-⑧⑨|
④⑫⑪口 |⑩-⑪⑫|
44
⑩③②口 |①-②③|
⑦⑥⑤口 |④-⑤⑥|
①⑨⑧口 |⑦-⑧⑨|
④⑫⑪口 |⑩-⑪⑫|
45
口⑤③⑤ |①-②-|
④口口口 |③-④-|
①口口② |⑤--⑥|
⑥⑦⑥⑦ |--⑦-|
46
①口①口 |①-②-|
口②④口 |③-④-|
口口③口
口口口口

口口⑥⑥
口口口⑥
口⑤口口 |⑤---|
⑥口口口 |⑥---|
47
⑧⑮⑭⑬ |①②③④|
⑯⑦⑩⑨ |⑤⑥⑦⑧|
④⑪⑥⑤ |⑨⑩⑪⑫|
⑫③②① |⑬⑭⑮⑯|
48
⑧⑮⑭⑬ |①②③④|
⑯⑦⑩⑨ |⑤⑥⑦⑧|
④⑪⑥⑤ |⑨⑩⑪⑫|
⑫③②① |⑬⑭⑮⑯|
49
⑧⑮⑭⑨ |①②③④|
⑯⑦⑩⑬ |⑤⑥⑦⑧|
④⑪⑥① |⑨⑩⑪⑫|
⑫③②⑤ |⑬⑭⑮⑯|
50
⑧⑮⑭⑨ |①②③④|
⑯⑦⑩⑬ |⑤⑥⑦⑧|
④⑪⑥① |⑨⑩⑪⑫|
⑫③②⑤ |⑬⑭⑮⑯|
51
⑧⑮⑭⑬ |①②③④|
⑯⑦⑩⑨ |⑤⑥⑦⑧|
④⑪⑥⑤ |⑨⑩⑪⑫|
⑫③②① |⑬⑭⑮⑯|
52
⑧⑮⑭⑬ |①②③④|
⑯⑦⑩⑨ |⑤⑥⑦⑧|
④⑪⑥⑤ |⑨⑩⑪⑫|
⑫③②① |⑬⑭⑮⑯|
53
⑧⑮⑭⑨ |①②③④|
⑯⑦⑩⑬ |⑤⑥⑦⑧|
④⑪⑥① |⑨⑩⑪⑫|
⑫③②⑤ |⑬⑭⑮⑯|
54
口口⑥口 |①--②|
⑤②③口 |--③-|
口③②口 |-④--|
口①①④ |⑤-⑥-|
55
⑬⑭⑮⑧ |①②③④|
⑨⑩⑦⑯ |⑤⑥⑦⑧|
⑤⑥⑪④ |⑨⑩⑪⑫|
①②③⑫ |⑬⑭⑮⑯|
56
⑬⑭⑮⑧ |①②③④|
⑨⑩⑦⑯ |⑤⑥⑦⑧|
⑤⑥⑪④ |⑨⑩⑪⑫|
①②③⑫ |⑬⑭⑮⑯|
57
⑨⑭⑮⑧ |①②③④|
⑬⑩⑦⑯ |⑤⑥⑦⑧|
①⑥⑪④ |⑨⑩⑪⑫|
⑤②③⑫ |⑬⑭⑮⑯|
58
⑨⑭⑮⑧ |①②③④|
⑬⑩⑦⑯ |⑤⑥⑦⑧|
①⑥⑪④ |⑨⑩⑪⑫|
⑤②③⑫ |⑬⑭⑮⑯|
59
⑬⑭⑮⑧ |①②③④|
⑨⑩⑦⑯ |⑤⑥⑦⑧|
⑤⑥⑪④ |⑨⑩⑪⑫|
①②③⑫ |⑬⑭⑮⑯|
60
⑬⑭⑮⑧ |①②③④|
⑨⑩⑦⑯ |⑤⑥⑦⑧|
⑤⑥⑪④ |⑨⑩⑪⑫|
①②③⑫ |⑬⑭⑮⑯|
61
⑨⑭⑮⑧ |①②③④|
⑬⑩⑦⑯ |⑤⑥⑦⑧|
①⑥⑪④ |⑨⑩⑪⑫|
⑤②③⑫ |⑬⑭⑮⑯|
62
④口⑤⑤ |①--②|
口口③⑤ |--③-|
②③口② |④---|
⑤①①④ |⑤---|
63
口口口口 |①---|
口口口口 |--②-|
口口口口
口①①②

④③口口
口口口口
③④口口 |③--④|
⑤⑤口口 |--⑤-|
64
口口④⑤ |----|
①②③口 |①②③④|
口口口口 |⑤---|
口口口口 |----|
65
口口口口 |①---|
①口口① |--②-|
口口口口
②口口口

口口④③
口口⑤⑤
口口③④ |③--④|
口口口口 |--⑤-|
66
口口口口 |----|
口口口口 |--①-|
口①①口 |----|
口口口口 |----|
67
口口口口 |①---|
口口口口 |--②-|
口口口口
口①①②

④③口口
口口口口
③④口口 |③--④|
⑤⑤口口 |--⑤-|
68
口①①口 |----|
口口口口 |--①-|
口口口口 |----|
口口口口 |----|
69
口口口口 |①---|
①口口① |--②-|
口口口口
②口口口

口口④③
口口⑤⑤
口口③④ |③--④|
口口口口 |--⑤-|
70
③④口① |----|
⑥⑤口口 |①-②-|
口口口口 |③④⑤⑥|
口②②口 |----|
71
口口②① |①②③④|
口口③④ |----|
⑤⑥口口 |⑤⑥⑦⑧|
⑧⑦口口 |----|
72
⑤⑥⑩⑨ |①②③④|
⑧⑦⑪⑫ |⑤⑥⑦⑧|
⑬⑭②① |⑨⑩⑪⑫|
⑯⑮③④ |⑬⑭⑮⑯|
73
口①口口 |----|
①口口口 |①---|
口口口① |----|
口口①口 |----|
74
口口口口 |----|
口口口口 |----|
口口口口 |----|
口口口口 |----|
75
口口②② |----|
①口口② |----|
口口口口 |--①-|
②口①口 |②---|

不確定度: 0

最終更新:2014年07月27日 02:32