Engraved Mark
Ryu☆ ∞ Des-ROW

BASIC

Level: 4
BPM: 188
Notes: 335

1
口口口口 |----|
口口口口 |----|
口口口口 |----|
口口口口 |----|
2
①口口① |----|
口口口口 |----|
口口口口 |①---|
口口口口 |----|
3
口口口口 |①---|
口①②口 |②---|
口③④口 |③---|
口口口口 |④---|
4
①口口② |①---|
口口口口 |②---|
口口口口 |③---|
③口口④ |④---|
5
口④④口 |①---|
口③③口 |②---|
口②②口 |③---|
口①①口 |④---|
6
①口口① |①---|
②口口② |----|
口口口口 |②---|
口口口口 |----|
7
口口口口 |①---|
口①②口 |②---|
口③④口 |③---|
口口口口 |④---|
8
①口口② |①---|
口口口口 |②---|
口口口口 |③---|
③口口④ |④---|
9
口④④口 |①---|
口③③口 |②---|
口②②口 |③---|
口①①口 |④---|
10
①口口① |①---|
②口口② |②---|
③口口③ |③---|
④口口④ |④---|
11
口口口口 |①---|
口①④口 |②---|
口③②口 |③---|
口口口口 |④---|
12
①口口④ |①---|
口口口口 |②---|
口口口口 |③---|
③口口② |④---|
13
口④④口 |①---|
③口口③ |②---|
②口口② |③---|
口①①口 |④---|
14
①口口① |①---|
口②②口 |②---|
口③③口 |③---|
④口口④ |④---|
15
口口③口 |①---|
②口口② |②---|
口口口口 |----|
口①口口 |③---|
16
口口口口 |①---|
口①②口 |②---|
口③④口 |③---|
口口口口 |④---|
17
①口口口 |①---|
口口口② |②---|
③口口口 |③---|
口口口④ |④---|
18
口④④口 |①---|
口③③口 |②---|
口②②口 |③---|
口①①口 |④---|
19
口口口口 |①---|
①口口① |----|
口口口口 |----|
口口口口 |----|
20
口口口口 |----|
口口口口 |----|
口口口口 |----|
口口口口 |----|
21
口口口口 |----|
口口口口 |----|
口口口口 |----|
口口口口 |----|
22
口口口口 |----|
口口口口 |----|
口口口口 |----|
口口口口 |----|
23
口口口口 |①---|
①口口① |----|
口口口口 |----|
口口口口 |----|
24
口口口口 |①---|
口口口口 |----|
口口②口 |②---|
口①口口 |----|
25
口口口口 |①---|
口①①口 |----|
口口口口 |----|
口口口口 |----|
26
口①口口 |①---|
口口②口 |②---|
口③口口 |③---|
口口④口 |④---|
27
口口口口 |①---|
①口口① |----|
口口口口 |----|
口口口口 |----|
28
口口口口 |①---|
口口口口 |----|
口②口口 |②---|
口口①口 |----|
29
口口口口 |①---|
口①①口 |----|
口口口口 |----|
口口口口 |----|
30
口口口口 |①---|
口口口口 |----|
口①①口 |----|
口口口口 |----|
31
口口口口 |①---|
①口口① |----|
口口口口 |----|
口口口口 |----|
32
口口口口 |①---|
口口口口 |----|
口口②口 |②---|
口①口口 |----|
33
口口口口 |①---|
口①①口 |----|
口口口口 |----|
口口口口 |----|
34
口口①口 |①---|
口②口口 |②---|
口口③口 |③---|
口④口口 |④---|
35
口口口口 |①---|
①口口① |----|
口口口口 |----|
口口口口 |----|
36
口口口口 |①---|
口口口口 |----|
口①①口 |----|
口口口口 |----|
37
口口口口 |①---|
口①①口 |----|
口口口口 |----|
口口口口 |----|
38
口①①口 |①---|
口口口口 |----|
口口口口 |----|
口口口口 |----|
39
口口口口 |①---|
口①口口 |----|
口口①口 |----|
口口口口 |----|
40
口口口口 |----|
口口口口 |----|
口口口口 |----|
口口口口 |----|
41
口口口口 |①---|
口口①口 |----|
口①口口 |----|
口口口口 |----|
42
口口口口 |----|
口口口口 |----|
口口口口 |----|
口口口口 |----|
43
口口口口 |①---|
口①口口 |----|
口口①口 |----|
口口口口 |----|
44
口口口口 |----|
口口口口 |----|
口口口口 |----|
口口口口 |----|
45
口口口口 |①---|
口口①口 |----|
口①口口 |----|
口口口口 |----|
46
口口口口 |①---|
口口口口 |----|
①口口② |②---|
口口口口 |----|
47
口口口口 |①---|
口①口口 |----|
口口①口 |----|
口口口口 |----|
48
口口口口 |①---|
口口①口 |----|
口①口口 |----|
口口口口 |----|
49
口口口口 |①---|
口①②口 |----|
口②①口 |②---|
口口口口 |----|
50
口口口口 |①---|
口①②口 |----|
口②①口 |②---|
口口口口 |----|
51
口口口口 |----|
口口口口 |----|
口口口口 |----|
口口口口 |----|
52
④口口④ |①---|
③口②③ |②---|
口①口口 |③---|
口口口口 |④---|
53
口口口口 |①---|
④①口口 |②---|
③②口口 |③---|
口口口口 |④---|
54
口口口口 |①---|
口口①④ |②---|
口口②③ |③---|
口口口口 |④---|
55
口①①口 |①---|
口②②口 |②---|
口③③口 |③---|
口④④口 |④---|
56
口口口口 |①---|
③口口② |----|
①口口① |②---|
口口口口 |③---|
57
口②①口 |①---|
口③④口 |②---|
口口口口 |③---|
口口口口 |④---|
58
口口口口 |①---|
口口口口 |②---|
口②①口 |③---|
口③④口 |④---|
59
④口口④ |①---|
③口口③ |②---|
②口口② |③---|
①口口① |④---|
60
口①①口 |①---|
③口口② |----|
口口口口 |②---|
口口口口 |③---|
61
口口①口 |①---|
口②口口 |②---|
口口③口 |③---|
口④口口 |④---|
62
口④口口 |①---|
口口③口 |②---|
口②口口 |③---|
口口①口 |④---|
63
①口口① |①---|
③口口③ |--②-|
②口口② |----|
口口口口 |③---|
64
口④④口 |①---|
口③③口 |②---|
口②②口 |③---|
口①①口 |④---|
65
①④口口 |①---|
口口口② |②---|
口口口③ |③---|
口口口口 |④---|
66
口口④① |①---|
②口口口 |②---|
③口口口 |③---|
口口口口 |④---|
67
口口口口 |①---|
口②①口 |----|
口①②口 |②---|
口口口口 |----|
68
③③③③ |①---|
①口口① |②---|
②口口② |③---|
④④④④ |④---|
69
口口口口 |①---|
④①口口 |②---|
③②口口 |③---|
口口口口 |④---|
70
口口口口 |①---|
口口①④ |②---|
口口②③ |③---|
口口口口 |④---|
71
口①①口 |①---|
口②②口 |②---|
口③③口 |③---|
口④④口 |④---|
72
④口口④ |①---|
②口口② |②---|
①口口① |③---|
③口口③ |④---|
73
口②①口 |①---|
口③④口 |②---|
口口口口 |③---|
口口口口 |④---|
74
口口口口 |①---|
口口口口 |②---|
口②①口 |③---|
口③④口 |④---|
75
④口口④ |①---|
③口口③ |②---|
②口口② |③---|
①口口① |④---|
76
口①①口 |①---|
③口口② |----|
口口口口 |②---|
口口口口 |③---|
77
口口①口 |①---|
口②口口 |②---|
口口③口 |③---|
口④口口 |④---|
78
口④口口 |①---|
口口③口 |②---|
口②口口 |③---|
口口①口 |④---|
79
①口口① |①---|
②口口② |②---|
③口口③ |③---|
④口口④ |④---|
80
口④④口 |①---|
口③③口 |②---|
口②②口 |③---|
口①①口 |④---|
81
口④口口 |①---|
②口口② |②---|
口口口③ |③---|
①口口口 |④---|
82
口口④① |①---|
②口口口 |②---|
③口口口 |③---|
口口口口 |④---|
83
口口口口 |①---|
口②①口 |----|
口①②口 |②---|
口口口口 |----|
84
③口口③ |①---|
④口口④ |②---|
②口口② |③---|
①口口① |④---|
85
口口口口 |①---|
口①①口 |----|
口①①口 |----|
口口口口 |----|


不確定度: 0

最終更新:2014年01月23日 10:53