Engraved Mark
Ryu☆ ∞ Des-ROW

ADVANCED

Level: 8
BPM: 188
Notes: 518

1
口口口口 |----|
口口口口 |----|
口口口口 |----|
口口口口 |----|
2
口①②口 |----|
口③④口 |----|
口口口口 |①-②-|
口口口口 |③-④-|
3
④口口③ |①---|
⑤口口② |②-③-|
①口口口 |--④-|
口口口口 |⑤---|
4
口口①口 |①---|
口口口口 |②-③-|
口②口⑤ |--④-|
口③口④ |⑤---|
5
口口③口 |①---|
口④②口 |②-③-|
口⑥⑤口 |--④-|
①口口口 |⑤-⑥-|
6
①④⑤① |①---|
②⑥⑦③ |②-③-|
口口口口 |④-⑤-|
口口口口 |⑥-⑦-|
7
④口口③ |①---|
⑤口口② |②-③-|
①口口口 |--④-|
口口口口 |⑤---|
8
口口①口 |①---|
口口口口 |②-③-|
口②口⑤ |--④-|
口③口④ |⑤---|
9
口口③口 |①---|
④口②口 |②-③-|
⑥口⑤口 |--④-|
①口口口 |⑤-⑥-|
10
口④⑤口 |①-②-|
⑥口③口 |③-④-|
口②口⑦ |⑤-⑥-|
口⑧①口 |⑦-⑧-|
11
口口口③ |①---|
口①口② |②-③-|
口口口口
口口口口

④口口口
⑤⑨口口
⑥口口⑧ |④⑤⑥⑦|
⑦口口口 |⑧-⑨-|
12
口③①口 |①---|
口口②④ |②-③-|
口口口⑤ |--④-|
口口口口 |⑤---|
13
口口口口 |①---|
口③口⑤ |②-③-|
①④②口 |--④-|
口口口口 |⑤---|
14
口口口口 |①---|
①⑥⑦口 |②-③-|
口④⑤口 |④-⑤-|
③口口② |⑥-⑦-|
15
①⑥口口 |①②③④|
②⑨⑧口 |⑤-⑥-|
③⑦口⑤ |--⑦-|
④口口口 |⑧-⑨-|
16
口口⑥① |①②③④|
口口⑨② |⑤-⑥-|
⑤⑧⑦③ |--⑦-|
口口口④ |⑧-⑨-|
17
①口口口 |①②③④|
②⑩⑨口 |⑤-⑥-|
③⑧⑦⑤ |⑦-⑧-|
④⑥口口 |⑨-⑩-|
18
口口口① |①②③④|
口⑨⑩② |⑤-⑥-|
⑤⑦⑧③ |⑦-⑧-|
口口⑥④ |⑨-⑩-|
19
①口口① |①---|
口口口口 |----|
口口口口 |----|
口口口口 |----|
20
口口口口 |----|
口口口口 |----|
口口口口 |----|
口口口口 |----|
21
口②口① |①---|
④口③口 |②-③-|
口口口⑤ |--④-|
口口口口 |--⑤-|
22
口口⑥口 |--①-|
口⑤口口 |--②-|
口口④口 |③-④-|
①③口② |⑤-⑥-|
23
口口口口 |①---|
①口口① |----|
口口口口 |----|
口口口口 |----|
24
②口口② |①---|
口口口口 |----|
口口口口 |②---|
口①①口 |----|
25
口口口口 |①---|
口①口口 |----|
口口①口 |----|
口口口口 |----|
26
⑤口口① |①-②-|
口⑥②口 |③-④-|
口③⑦口 |⑤-⑥-|
④口口⑧ |⑦-⑧-|
27
口口口口 |①---|
口口口口 |----|
口口口口 |----|
口①口口 |----|
28
②口口② |①---|
口口口口 |----|
口口口口 |②---|
①口口① |----|
29
口⑤口④ |①-②-|
口口③⑥ |③-④-|
口②口口 |--⑤-|
①口口口 |--⑥-|
30
口⑤⑥口 |--①-|
口③④口 |--②-|
口①口② |③-④-|
口口口口 |⑤-⑥-|
31
口口口口 |①---|
①口口口 |----|
口口口口 |----|
口口口口 |----|
32
②口口② |①---|
口口口口 |----|
口口口口 |②---|
①口口① |----|
33
口口口口 |①---|
口①口口 |----|
口口①口 |----|
口口口口 |----|
34
⑤口口① |①-②-|
口⑥②口 |③-④-|
口③⑦口 |⑤-⑥-|
④口口⑧ |⑦-⑧-|
35
⑥口口口 |①-②-|
④口⑤口 |③-④-|
口③口口 |--⑤-|
口①②口 |--⑥-|
36
口口①⑥ |--①-|
②③④⑤ |--②-|
口口口口 |③-④-|
口口口口 |⑤-⑥-|
37
口①④口 |①---|
口口口口 |--②-|
口③口② |--③-|
口口口口 |--④-|
38
口口④口 |--①-|
口③口口 |--②-|
①口②口 |--③-|
口口口口 |--④-|
39
口口口口 |①-②-|
⑤口口⑥ |③-④-|
口③④口 |--⑤-|
口①②口 |--⑥-|
40
口口口口 |----|
口口口口 |----|
口口口口 |----|
口口口口 |----|
41
口口口口 |①-②-|
⑤口口⑥ |③-④-|
口③④口 |--⑤-|
口①②口 |--⑥-|
42
口口口口 |----|
口口口口 |----|
口口口口 |----|
口口口口 |----|
43
口口口口 |①-②-|
⑤口口⑥ |③-④-|
口③④口 |--⑤-|
口①②口 |--⑥-|
44
口口口口 |----|
口口口口 |----|
口口口口 |----|
口口口口 |----|
45
口口口口 |①-②-|
⑤口口⑥ |③-④-|
口③④口 |--⑤-|
口①②口 |--⑥-|
46
①⑤⑥② |--①-|
口③④口 |--②-|
口口口口 |③-④-|
口口口口 |⑤-⑥-|
47
口口口口 |①-②-|
⑤口口⑥ |③-④-|
口③④口 |--⑤-|
口①②口 |--⑥-|
48
口口口口 |①-②-|
⑤⑥⑦口 |③-④-|
口③④口 |--⑤-|
口①②口 |⑥-⑦-|
49
口口口口 |①-②-|
⑦口口⑧ |③-④-|
口③④口 |⑤-⑥-|
⑤①②⑥ |⑦-⑧-|
50
⑦③④⑧ |①-②-|
口①②口 |③-④-|
⑤口口⑥ |⑤-⑥-|
口口口口 |⑦-⑧-|
51
口③口口 |--①-|
口口②口 |②-③-|
口①口口 |----|
口口口口 |----|
52
②③④② |①---|
②⑤⑥② |②---|
口口口口 |③-④-|
①①①① |⑤-⑥-|
53
⑤口口④ |①---|
口⑥口口 |②-③-|
①口口③ |④-⑤-|
口口②口 |⑥---|
54
口④口⑥ |①---|
口口⑤① |②-③-|
②口口口 |④-⑤-|
口③口口 |⑥---|
55
口④③口 |①---|
口口口② |②-③-|
⑤⑥⑦口 |④-⑤-|
①口口① |⑥-⑦-|
56
口④⑤口 |①---|
②⑥⑦③ |②-③-|
口口口① |④-⑤-|
口口口口 |⑥-⑦-|
57
②口⑤② |①---|
④⑥口口 |②-③-|
口②②口 |④-⑤-|
①口口③ |⑥---|
58
口口口⑥ |①---|
④口⑤① |②-③-|
②口口口 |④-⑤-|
口③口口 |⑥---|
59
口口③口 |①---|
口口口② |②-③-|
⑤①①④ |④-⑤-|
口⑥口口 |⑥---|
60
口口口口 |①---|
口口①口 |②---|
口①口口
②口口②

口③④口
口⑤⑥口
口口口口 |③-④-|
口口口口 |⑤-⑥-|
61
⑤口口④ |①---|
口⑥口口 |②-③-|
①①口③ |④-⑤-|
口口②口 |⑥---|
62
口①①⑥ |①---|
口口⑤口 |②-③-|
②口口口 |④-⑤-|
口③④口 |⑥---|
63
⑥③①⑤ |①--②|
①⑥⑤③ |--③-|
④口口② |-④--|
口②④口 |⑤-⑥-|
64
口口口口 |①-②-|
口口⑤口 |③-④-|
口②①口 |----|
④口口③ |⑤---|
65
②④④② |①---|
①口口口 |②-③-|
口②②口 |--④-|
口口口③ |----|
66
②口口② |①---|
口口①口 |②-③-|
口②②口 |----|
③口口④ |④---|
67
③口口④ |①---|
口①①口 |②-③-|
②⑥口⑤ |--④-|
口口口口 |⑤-⑥-|
68
口①④口 |①-②-|
⑥③②⑤ |③-④-|
口⑧⑦口 |⑤-⑥-|
口口口口 |⑦-⑧-|
69
口⑥⑥口 |①---|
⑤口口口 |②-③-|
口口口③ |④-⑤-|
口④②① |⑥---|
70
口口口口 |①---|
口⑥⑥① |②-③-|
②口口⑤ |④-⑤-|
口③④口 |⑥---|
71
①口③① |①---|
④口口② |②-③-|
⑤①①口 |④-⑤-|
口⑥⑥口 |⑥---|
72
③⑤④口 |①---|
口②口口 |②-③-|
口口口① |④-⑤-|
口⑦⑥口 |⑥-⑦-|
73
②④口② |①---|
口口⑤口 |②-③-|
①②②口 |--④-|
口口口③ |⑤---|
74
口口口④ |①---|
口⑤⑤① |②-③-|
口③口口 |--④-|
②口口口 |⑤---|
75
④口口口 |①---|
口⑤口口 |②-③-|
①口口③ |--④-|
口口②口 |⑤---|
76
口⑤⑥口 |①-②-|
④⑦⑧② |③-④-|
口③①口 |⑤-⑥-|
口口口口 |⑦-⑧-|
77
口⑥⑥口 |①---|
⑤口口口 |②-③-|
①④口③ |④-⑤-|
口口②口 |⑥---|
78
口口口口 |①---|
口⑥⑥① |②-③-|
③口口⑤ |④-⑤-|
口②④口 |⑥---|
79
①口口① |①---|
口口口⑤ |②-③-|
②①①口 |④-⑤-|
④⑥⑥③ |⑥---|
80
口③口口 |①---|
②⑥⑥④ |②-③-|
口口⑤① |④-⑤-|
口口口口 |⑥---|
81
②②②② |①---|
④口⑦口 |②-③-|
①⑥⑤③ |④-⑤-|
口口口口 |⑥-⑦-|
82
口⑦口口 |①---|
③①⑥④ |②-③-|
口⑤口口 |④-⑤-|
②②②② |⑥-⑦-|
83
口口④① |①-②-|
口⑤口⑧ |③-④-|
③口②口 |⑤-⑥-|
口⑦口⑥ |⑦-⑧-|
84
口口口口 |①-②-|
①口④口 |③-④-|
⑤⑥⑦⑧ |⑤-⑥-|
③口②口 |⑦-⑧-|
85
①①①① |①---|
口口口口 |----|
口口口口 |----|
口口口口 |----|


不確定度: 0

最終更新:2014年01月23日 10:53