Engraved Mark
Ryu☆ ∞ Des-ROW

EXTREME

Level: 10
BPM: 188
Notes: 733

1
口口口口 |----|
口口口口 |----|
口口口口 |----|
口口口口 |----|
2
①⑥⑥② |①②③④|
③⑦口④ |⑤-⑥-|
⑤口⑧口 |⑦-⑧-|
口⑨⑩口 |⑨-⑩-|
3
口④口口 |①---|
⑤口口③ |②-③-|
口口口口 |④-⑤-|
①⑥口② |⑥---|
4
口口口口 |①---|
口②口⑤ |②-③-|
口⑥⑥① |④-⑤-|
③口④口 |⑥---|
5
①口口① |①---|
④口③口 |②-③-|
口口口⑥ |--④-|
⑤口口② |⑤-⑥-|
6
②口③① |①---|
口④⑥口 |②-③-|
口⑦⑤口 |④-⑤-|
口口口口 |⑥-⑦-|
7
⑤口③口 |①---|
②④口② |②-③-|
②⑥④② |④-⑤-|
①口口口 |⑥---|
8
口②口① |①---|
口口口口 |②-③-|
③⑤⑤④ |--④-|
口口口口 |⑤---|
9
①④口① |①---|
口口③口 |②-③-|
⑤口口⑥ |--④-|
口口口② |⑤-⑥-|
10
口口①口 |①-②-|
②口口口 |③-④-|
口④④口
口③口口

口⑤⑧口
口⑦⑦口
口口口口 |⑤-⑥-|
口口⑥口 |⑦-⑧-|
11
①③口① |①---|
④⑤⑥⑦ |②-③-|
①口②① |④⑤⑥⑦|
⑨口口⑧ |⑧-⑨-|
12
①④①③ |①---|
口口口口 |②-③-|
口⑤②⑥ |--④-|
⑤口⑥口 |⑤-⑥-|
13
①口①⑤ |①---|
③口口口 |②-③-|
口口④口 |--④-|
口②口口 |⑤---|
14
口④⑥口 |①---|
口①③① |②-③-|
②⑤⑦口 |④-⑤-|
口口①口 |⑥-⑦-|
15
口⑨口口 |①②③④|
⑤⑧⑦⑤ |⑤-⑥-|
⑥口口口 |--⑦-|
①②③④ |⑧-⑨-|
16
⑤⑧⑦⑤ |①②③④|
口口口口 |⑤-⑥-|
④③②① |--⑦-|
口⑨⑥口 |⑧-⑨-|
17
口口口口 |①②③④|
①②③④ |⑤-⑥-|
⑥口口口
口口口⑤

口口口口
⑩口口口
口口⑨⑦ |⑦-⑧-|
⑧口口口 |⑨-⑩-|
18
④③②① |①②③④|
口口⑦口 |⑤-⑥-|
⑤⑧口⑥ |⑦-⑧-|
⑩口⑨口 |⑨-⑩-|
19
①①①① |①---|
口口口口 |----|
口口口口 |----|
口口口口 |----|
20
口口口口 |----|
口口口口 |----|
口口口口 |----|
口口口口 |----|
21
口口口① |①---|
⑤口③口 |②-③-|
口②口④ |--④-|
口口口口 |--⑤-|
22
口⑥口口 |--①-|
口口⑤口 |--②-|
①④口口 |③-④-|
②口③口 |⑤-⑥-|
23
口口口口 |①---|
口口口口 |----|
①口口① |----|
口口口口 |----|
24
口②口口 |①---|
口口口② |----|
①口口口 |②---|
口口①口 |----|
25
口口口口 |①---|
口①①口 |----|
口①①口 |----|
口口口口 |----|
26
③口⑤① |①-②-|
口⑥口口 |③-④-|
口口⑦口 |⑤-⑥-|
④⑧口② |⑦-⑧-|
27
口口口口 |①---|
①口口① |----|
口口口口 |----|
口口口口 |----|
28
口口②口 |①---|
②口口口 |----|
口口口① |②---|
口①口口 |----|
29
⑤口口④ |①-②-|
口口③口 |③-④-|
⑥②口口 |--⑤-|
①口口口 |--⑥-|
30
⑥口④② |--①-|
口③口口 |--②-|
口口⑤① |③-④-|
口口口口 |⑤-⑥-|
31
口口口口 |①---|
口口①口 |----|
口①口口 |----|
口口口口 |----|
32
口②口口 |①---|
口口口② |----|
①口口口 |②---|
口口①口 |----|
33
口口口口 |①---|
口①①口 |----|
口①①口 |----|
口口口口 |----|
34
③口⑤① |①-②-|
口⑥口口 |③-④-|
口口⑦口 |⑤-⑥-|
④⑧口② |⑦-⑧-|
35
口口口④ |①-②-|
口口③口 |③-④-|
①②口①
口口口口

⑤口口口
口口口口
⑥口口口 |--⑤-|
口口口口 |--⑥-|
36
⑥口④② |--①-|
口③口口 |--②-|
口口⑤① |③-④-|
口口口口 |⑤-⑥-|
37
口①口口 |①---|
口口③① |②-③-|
③④④⑤ |--④-|
口⑤②口 |--⑤-|
38
④口口④ |--①-|
①②②口 |--②-|
口口口口 |--③-|
③口①③ |--④-|
39
口口④⑥ |①-②-|
⑤③口口 |③-④-|
口口②⑥ |--⑤-|
⑤①口口 |--⑥-|
40
口口口口 |----|
口口口口 |----|
口口口口 |----|
口口口口 |----|
41
口口④⑥ |①-②-|
⑤③口口 |③-④-|
口口②⑥ |--⑤-|
⑤①口口 |--⑥-|
42
①口口口 |--①-|
口③④② |②-③-|
口⑤口口 |④-⑤-|
⑥口⑦口 |⑥-⑦-|
43
口口④⑥ |①-②-|
⑤③口口 |③-④-|
口口②⑥ |--⑤-|
⑤①口口 |--⑥-|
44
①②③口 |①-②-|
口口④⑤ |③-④-|
口⑥口口 |⑤---|
口口⑦口 |⑥-⑦-|
45
口口④⑥ |①-②-|
⑤③口口 |③-④-|
口口②⑥ |--⑤-|
⑤①口口 |--⑥-|
46
①④口口 |--①-|
③口⑥② |--②-|
①⑤口口 |③-④-|
口口口② |⑤-⑥-|
47
⑤口④口 |①-②-|
口③口口 |③-④-|
⑥口②口 |--⑤-|
口①①口 |--⑥-|
48
口④口⑤ |①-②-|
⑥口③口 |③-④-|
口②口⑦ |--⑤-|
口①①口 |⑥-⑦-|
49
口⑧④口 |①-②-|
口③⑦口 |③-④-|
口⑥②口 |⑤-⑥-|
⑤①⑤① |⑦-⑧-|
50
⑪⑮⑥⑭ |①②③④|
③⑦⑩② |⑤⑥⑦⑧|
⑤⑬④⑫ |⑨⑩⑪⑫|
⑨①口⑧ |⑬⑭⑮-|
51
口口③口 |--①-|
①③口② |②-③-|
口口口口 |----|
口①②口 |----|
52
①②②口 |①---|
①口②口 |②---|
①②口口
①②②口

口口口③
口④口口
口口口⑤ |③-④-|
⑥口口口 |⑤-⑥-|
53
⑥口④口 |①-②-|
②口口③ |③-④-|
①⑦①口 |⑤-⑥-|
口口⑤⑦ |⑦---|
54
⑤口③口 |①---|
口口①口 |②-③-|
①⑥口② |④-⑤-|
①②④⑥ |⑥---|
55
⑤①③① |①---|
①口口口 |②-③-|
口⑥口② |④-⑤-|
口②④⑥ |⑥---|
56
⑥④③① |①---|
口④⑦① |②-③-|
①⑥⑤口 |④-⑤-|
①②⑤⑦ |⑥-⑦-|
57
⑤口④② |①---|
②口口② |②-③-|
①⑥口口 |④-⑤-|
①③口⑥ |⑥---|
58
⑤口③口 |①---|
口口①口 |②-③-|
①⑥口② |④-⑤-|
①②④⑥ |⑥---|
59
⑤口③口 |①---|
①口①口 |②-③-|
口⑥口② |④-⑤-|
①②④⑥ |⑥---|
60
⑤③③① |①---|
口口口① |②-③-|
①⑥⑥口 |④-⑤-|
①②④口 |⑥---|
61
⑤口③口 |①---|
①⑦①口 |②-③-|
口⑥⑦② |④-⑤-|
①②④⑥ |⑥-⑦-|
62
⑤口③口 |①---|
口口①口 |②-③-|
①⑥口② |④-⑤-|
①②④⑥ |⑥---|
63
④①②③ |①--②|
②③④① |--③-|
①⑤⑥② |-④--|
③⑥⑤④ |⑤-⑥-|
64
口①②④ |①-②-|
③③口④ |③-④-|
①⑤口② |----|
口口口⑤ |⑤---|
65
⑤②口② |①---|
②口①④ |②-③-|
①口口口 |④-⑤-|
①口③⑥ |⑥---|
66
⑤②④② |①---|
②口①⑤ |②-③-|
①口口口 |④---|
①③口口 |⑤---|
67
口⑥③口 |①---|
口②⑤口 |②-③-|
④口①口 |--④-|
①口口① |⑤-⑥-|
68
⑦口⑤⑥ |①-②-|
②⑥口④ |③-④-|
⑤⑧⑦① |⑤-⑥-|
口③口⑧ |⑦-⑧-|
69
⑤口③口 |①---|
①④①④ |②-③-|
口⑥⑦② |④-⑤-|
①②④⑥ |⑥-⑦-|
70
⑥②④口 |①-②-|
口口①⑧ |③-④-|
①⑦⑦③ |⑤-⑥-|
①③⑤⑦ |⑦-⑧-|
71
⑧⑥④② |①-②-|
①口①口 |③-④-|
口⑦口③ |⑤-⑥-|
①③⑤⑦ |⑦-⑧-|
72
口口④② |①-②-|
口口①口 |③-④-|
①口口③
①③口口

⑦⑦口口
口⑤⑧口
口⑧⑤口 |⑤-⑥-|
口口⑥⑥ |⑦-⑧-|
73
⑤口④② |①---|
②口口口 |②-③-|
口⑥⑦② |④-⑤-|
①③口⑥ |⑥-⑦-|
74
⑥口④口 |①-②-|
口②①口 |③-④-|
①⑦⑦③ |⑤-⑥-|
①③⑤⑦ |⑦---|
75
⑧⑥④② |①-②-|
①口①口 |③-④-|
口⑦口③ |⑤-⑥-|
①③⑤⑦ |⑦-⑧-|
76
口⑤口② |①-②-|
口口口⑥ |③-④-|
③⑦⑦口 |⑤-⑥-|
①④④⑧ |⑦-⑧-|
77
⑤口③口 |①---|
①④①④ |②-③-|
口⑥⑦② |④-⑤-|
①②④⑥ |⑥-⑦-|
78
⑥②④口 |①-②-|
口口①口 |③-④-|
①⑦口③ |⑤-⑥-|
①③⑤⑦ |⑦---|
79
⑧⑥④② |①-②-|
①④①⑥ |③-④-|
②⑦⑧口 |⑤-⑥-|
①③⑤口 |⑦-⑧-|
80
⑧⑥④② |①-②-|
②④⑥⑦ |③-④-|
口口口口 |⑤-⑥-|
①③⑤⑦ |⑦-⑧-|
81
⑤口②⑤ |①---|
②③④口 |②-③-|
①④③② |④---|
①②口口 |⑤---|
82
⑤②口⑤ |①---|
口④③② |②-③-|
②③④口 |④---|
①口②① |⑤---|
83
口⑦④口 |①②③④|
③口⑥口 |⑤⑥⑦⑧|
口⑤口②
①口口⑧

⑬口口⑭
口⑮口⑩
⑨口⑫⑯ |⑨⑩⑪⑫|
口⑪口口 |⑬⑭⑮⑯|
84
口⑦④口 |①②③④|
③口口⑥ |⑤-⑥-|
口⑤⑧口 |⑦-⑧-|
①⑨②⑩ |⑨-⑩-|
85
①口口① |①---|
口①①口 |----|
口口口口 |----|
口口口口 |----|


不確定度: 0

最終更新:2014年01月23日 10:53