恋する☆宇宙戦争っ!!
Prim

ADVANCED

Level: 8
BPM: 200
Notes: 745

1
口口口口 |----|
口口口口 |----|
口口口口 |----|
口口口口 |----|
2
⑬⑭⑮⑯ |①②③④|
⑨⑩⑪⑫ |⑤⑥⑦⑧|
⑤⑥⑦⑧ |⑨⑩⑪⑫|
①②③④ |⑬⑭⑮⑯|
3
口口口口 |①-②-|
⑤⑥⑦⑧ |③-④-|
口口口口 |⑤-⑥-|
①②③④ |⑦-⑧-|
4
⑤⑥⑦⑧ |①-②-|
口口口口 |③-④-|
①②③④ |⑤-⑥-|
口口口口 |⑦-⑧-|
5
口口口口 |①---|
口①①口 |----|
⑤口口④ |②-③-|
口③②口 |④-⑤-|
6
口口①① |①---|
口口口口 |②---|
口口口口 |----|
②③口口 |③---|
7
⑤口口⑤ |①-②-|
口④④口 |--③-|
②③③① |--④-|
口口口口 |--⑤-|
8
口口口口 |--①-|
②口口① |②---|
口④④口 |③---|
口③③口 |④---|
9
口②②口 |①---|
口口口口 |--②-|
①口口① |----|
口口口口 |----|
10
③③③③ |①-②-|
口②②口 |--③-|
口①①口 |----|
口口口口 |----|
11
口口口口 |①-②-|
④③②① |③-④-|
⑧⑦⑥⑤ |⑤-⑥-|
口口口口 |⑦-⑧-|
12
④③②① |①-②-|
口口口口 |③-④-|
口口口口 |⑤-⑥-|
⑧⑦⑥⑤ |⑦-⑧-|
13
口口口口 |①-②-|
⑤⑥⑦⑧ |③-④-|
①②③④ |⑤-⑥-|
口口口口 |⑦-⑧-|
14
①②③④ |①-②-|
口口口口 |③-④-|
⑤口口口 |⑤---|
口⑤口⑥ |⑥---|
15
口口口口 |①-②-|
②⑤⑤① |--③-|
口④④口 |--④-|
口③③口 |--⑤-|
16
口④④口 |--①-|
口口口口 |②---|
②③③① |③---|
口口口口 |④---|
17
④口口③ |①-②-|
④口口③ |--③-|
②⑥⑥① |④---|
②⑤⑤① |⑤-⑥-|
18
④④④④ |--①-|
③③③③ |②---|
②口口② |③---|
①口口① |④---|
19
口口口口 |①-②-|
口口口口 |③-④-|
⑧⑥⑤⑦ |⑤-⑥-|
②④③① |⑦-⑧-|
20
口④②⑦ |①-②-|
口③①⑥ |③-④-|
口口口⑤ |--⑤-|
口口口口 |⑥-⑦-|
21
口口口口 |--①-|
口口口口 |②-③-|
⑥④⑤⑦ |④-⑤-|
口②③① |⑥-⑦-|
22
口②④口 |①-②-|
⑦①③口 |③-④-|
⑥口口口 |--⑤-|
⑤口口口 |⑥-⑦-|
23
⑥⑤④③ |--①-|
口口①② |②-③-|
口口口口 |④-⑤-|
口口口口 |⑥---|
24
⑤口口口 |①-②-|
口口口口 |③-④-|
④口②① |----|
④③口① |⑤---|
25
口口口口 |①-②-|
口③④口 |③-④-|
⑦②①口 |⑤-⑥-|
⑤口口⑥ |⑦---|
26
口④④口 |①---|
口③③口 |②---|
口②②口 |③---|
口①①口 |④---|
27
⑧⑦⑥⑤ |①-②-|
④口口③ |③-④-|
②口口① |⑤-⑥-|
口口口口 |⑦-⑧-|
28
口口口口 |①-②-|
口④②口 |③-④-|
口③①口 |--⑤-|
口⑦⑥⑤ |⑥-⑦-|
29
④⑤⑥⑦ |--①-|
②口口③ |②-③-|
口口口① |④-⑤-|
口口口口 |⑥-⑦-|
30
口口口口 |①-②-|
口②④口 |③-④-|
口①③口 |--⑤-|
⑤⑥⑦口 |⑥-⑦-|
31
口③④口 |--①-|
②口口⑤ |②-③-|
①口口⑥ |④-⑤-|
口口口口 |⑥---|
32
①口口② |①-②-|
口⑤⑤口 |③-④-|
口⑤⑤口 |⑤---|
③口口④ |----|
33
④③②① |①---|
口口口② |②---|
口口口③ |③---|
口口口④ |④---|
34
口口口口 |①---|
①⑤④口 |②---|
②口口口 |③---|
③②①口 |④-⑤-|
35
口口②③ |①---|
口口口④ |--②-|
④口①口 |③---|
③②口口 |④---|
36
②③④口 |①---|
①口口口 |--②-|
口口口① |③---|
口④③② |④---|
37
④口口① |①---|
③口口② |--②-|
②口口③ |③---|
①口口④ |④---|
38
口①②③ |①---|
口口口④ |--②-|
④口口口 |③---|
③②①口 |④---|
39
口口⑤口 |①---|
口④口⑤ |②-③-|
口②③口 |④---|
口口①① |⑤---|
40
口⑤口口 |①---|
⑤口④口 |②-③-|
口③②口 |④---|
①①口口 |⑤---|
41
④④口口 |①---|
口口③③ |②---|
②②口口 |③---|
口口①① |④---|
42
口口④口 |①-②-|
口③口口 |③-④-|
⑤口②⑤ |----|
口①口口 |⑤---|
43
口①口口 |①---|
①⑥口口 |②-③-|
口口⑤口 |--④-|
③④口② |⑤-⑥-|
44
口②①③ |--①-|
②口③① |②-③-|
口⑥口④ |--④-|
口口⑤口 |⑤-⑥-|
45
①口口口 |--①-|
口②口口 |--②-|
口口③口 |--③-|
口口口④ |--④-|
46
口③④口 |①-②-|
③口⑦④ |③-④-|
①⑥⑤② |--⑤-|
口①②口 |⑥-⑦-|
47
①口口口 |①---|
口①⑥口 |②-③-|
口⑤口口 |--④-|
③口④② |⑤-⑥-|
48
③①②口 |--①-|
①③口② |②-③-|
口④④口 |----|
口口口口 |④---|
49
⑧口口⑦ |①-②-|
⑥口口⑤ |③-④-|
④口口③ |⑤-⑥-|
②口口① |⑦-⑧-|
50
④④④④ |①---|
口③③口 |②---|
口②②口 |③---|
口①①口 |④---|
51
口口④口 |①---|
口⑤口口 |②-③-|
口口⑥① |--④-|
②口①③ |⑤-⑥-|
52
口⑥口④ |--①-|
口口⑤口 |②-③-|
③①口② |--④-|
①③②口 |⑤-⑥-|
53
①口口口 |--①-|
口②口口 |--②-|
口口③口 |--③-|
口口口④ |--④-|
54
口③④口 |①-②-|
③⑦口④ |③-④-|
①⑤⑥② |--⑤-|
口①②口 |⑥-⑦-|
55
口口口① |①---|
口⑥①口 |②-③-|
口口⑤口 |--④-|
②④口③ |⑤-⑥-|
56
口②③① |--①-|
②口①③ |②-③-|
④口口口 |----|
口口口口 |④---|
57
②口口口 |①---|
口口口口 |②---|
口口口口
①口口口

口口口③
口口④口
口⑤口口 |③-④-|
⑥口口口 |⑤-⑥-|
58
口口口口 |①-②-|
②口口① |③-④-|
④⑤⑤③ |----|
口口口口 |⑤---|
59
④③②① |①-②-|
⑧⑦⑥⑤ |③-④-|
口口口口 |⑤-⑥-|
口口口口 |⑦-⑧-|
60
口口口口 |①-②-|
口口口口 |③-④-|
④③②① |⑤-⑥-|
⑧⑦⑥⑤ |⑦-⑧-|
61
口口口① |①---|
口口②口 |--②-|
口③口口 |----|
口口口口 |③---|
62
口口口口 |①---|
口口口口 |--②-|
口口③② |----|
①口口口 |③---|
63
口口口口 |①---|
口口口口 |②---|
①口口口 |③---|
①②③④ |④---|
64
④③②① |①---|
口口口① |②---|
口口口口 |③---|
口口口口 |④---|
65
口口口口 |①---|
②口口② |--②-|
③①①③ |----|
口口口口 |③---|
66
口③③口 |--①-|
③②②③ |----|
口②②口 |②---|
①口口① |③---|
67
②口口① |①---|
口④③口 |②---|
口口口口 |③---|
口口口口 |④---|
68
口口口口 |①-②-|
口口口口 |③-④-|
④③②① |----|
口口⑤⑤ |⑤---|
69
①口口② |①---|
口③④口 |②---|
口口口口 |③---|
口口口口 |④---|
70
口口口⑤ |①---|
口口口口 |②-③-|
①口②③ |----|
④④口口 |④-⑤-|
71
②口口口 |①---|
口④③① |②---|
口口口口 |③---|
口口口口 |④---|
72
口口口口 |①-②-|
口口⑦口 |③-④-|
④③②① |--⑤-|
口⑥⑤口 |⑥-⑦-|
73
①①②② |①---|
口口口口 |②---|
③口口④ |③---|
③口口④ |④---|
74
①口口② |①---|
①④④② |②---|
口③③口 |③---|
口口口口 |④---|
75
④口口口 |①---|
③口口口 |②---|
②口口口 |③---|
①①口口 |④---|
76
口口口④ |①---|
口口口③ |②---|
口口口② |③---|
口口①① |④---|
77
口口口口 |①---|
③③口④ |②---|
①①口② |③---|
口口口口 |④---|
78
口⑦⑧口 |①-②-|
口⑤⑥口 |③-④-|
口③④口 |⑤-⑥-|
口①②口 |⑦-⑧-|
79
①口口口 |①---|
口⑥口口 |②-③-|
口口⑤口 |--④-|
③④口② |⑤-⑥-|
80
口②①③ |--①-|
②口③① |②-③-|
口⑥口④ |--④-|
口口⑤口 |⑤-⑥-|
81
①口口口 |--①-|
口②口口 |--②-|
口口③口 |--③-|
口口口④ |--④-|
82
口③④口 |①-②-|
③口⑦④ |③-④-|
①⑥⑤② |--⑤-|
口①②口 |⑥-⑦-|
83
①口口口 |①---|
口①口口 |②-③-|
口口口口
③口口②

口口口口
口⑥口口
口口⑤口 |--④-|
口④口口 |⑤-⑥-|
84
口②①③ |--①-|
②口③① |②-③-|
口④④口 |----|
口口口口 |④---|
85
⑧口口⑦ |①-②-|
⑥口口⑤ |③-④-|
④口口③ |⑤-⑥-|
②口口① |⑦-⑧-|
86
④④④④ |①---|
口③③口 |②---|
口②②口 |③---|
口①①口 |④---|
87
口口④口 |①---|
口⑤口口 |②-③-|
口口⑥① |--④-|
②口①③ |⑤-⑥-|
88
口①口口 |--①-|
①口②⑥ |②-③-|
口③⑤② |--④-|
③口口④ |⑤-⑥-|
89
①口口口 |--①-|
口②口口 |--②-|
口口③口 |--③-|
口口口④ |--④-|
90
口③④口 |①-②-|
③⑥⑦④ |③-④-|
①⑤⑧② |⑤-⑥-|
口①②口 |⑦-⑧-|
91
口④口口 |①---|
口口⑤口 |②-③-|
①⑥口口 |--④-|
③①口② |⑤-⑥-|
92
口口①口 |--①-|
口②口① |②-③-|
②口③口 |----|
④口口③ |④---|
93
②④③口 |①---|
口⑥⑤口 |②---|
口口口口 |③-④-|
口①口② |⑤-⑥-|
94
⑥⑥口口 |①-②-|
口口口口 |③-④-|
④③②① |⑤---|
口口⑤⑤ |⑥---|
95
口口口口 |①-②-|
④③②① |③-④-|
⑧⑦⑥⑤ |⑤-⑥-|
口口口口 |⑦-⑧-|
96
④③②① |①-②-|
口口口口 |③-④-|
口口口口 |⑤-⑥-|
⑧⑦⑥⑤ |⑦-⑧-|
97
口口口口 |①-②-|
⑤⑥⑦⑧ |③-④-|
①②③④ |⑤-⑥-|
口口口口 |⑦-⑧-|
98
①②③④ |①-②-|
口口口⑥ |③-④-|
⑤口口口 |⑤---|
口⑤口口 |⑥---|
99
⑤口口⑤ |①-②-|
口口口口 |--③-|
口④④口 |--④-|
②③③① |--⑤-|
100
口口口口 |--①-|
②④④① |②---|
口③③口 |③---|
口口口口 |④---|
101
④口口③ |①-②-|
④⑥⑥③ |--③-|
②⑤⑤① |④---|
②口口① |⑤-⑥-|
102
口口口口 |--①-|
④④④④ |②---|
②口口② |③---|
①③③① |④---|
103
①①①① |①---|
口口口口 |----|
口口口口 |----|
口口口口 |----|

不確定度: 0

最終更新:2014年08月02日 00:30