LANA - キロクノカケラ (sasakure.UK Framework Remix) -
TOMOSUKE×Jazzin'park

EXTREME

Level: 8
BPM: 200
Notes: 648

1
口口口口 |----|
口口②口 |----|
口口口口 |----|
①口口口 |①-②-|
2
口口口① |①---|
②口口③ |②-③-|
口口口① |----|
口口口口 |----|
3
口口口口 |①---|
口口口口 |--②-|
口①口口
口口②口

口口口③
口口口口
口④口口 |----|
口口口口 |③-④-|
4
口口口口 |①---|
①口口口 |②-③-|
③口④② |--④-|
①⑤口口 |⑤---|
5
③口口口 |①---|
口口口口 |--②-|
口①④口 |----|
口口②口 |③-④-|
6
口口口口 |①---|
口口口① |②-③-|
②口口③ |----|
口口口① |----|
7
口口口口 |①---|
口口口口 |--②-|
口①口口 |----|
口口②③ |③---|
8
②口口口 |①---|
④①口③ |--②-|
②口口口 |--③-|
口口口口 |--④-|
9
②口口① |--①-|
口口口口 |--②-|
②口口① |----|
口口口口 |----|
10
②口②口 |①---|
口口口口 |②---|
口口口口
口①口①

口口口口
口④口③
口口⑤口 |③-④-|
口⑥口⑥ |⑤-⑥-|
11
口①口口 |①---|
口口②口 |--②-|
口口口口 |----|
③口③口 |--③-|
12
口①口① |①---|
②④②④ |②-③-|
⑤③⑤③ |--④-|
口⑥口⑥ |⑤-⑥-|
13
③口口口 |--①-|
口④③口 |--②-|
口②口口 |----|
①口①口 |③-④-|
14
口口口④ |①---|
口④⑤口 |--②-|
口口③① |③---|
②②口口 |④-⑤-|
15
口④口口 |①---|
口口④口 |--②-|
①③口口 |③---|
口口②② |--④-|
16
③口②③ |①-②-|
①②⑤① |--③-|
④⑥口④ |--④-|
口口口口 |⑤-⑥-|
17
口口口口 |--①-|
口口口口 |②---|
口口口口 |----|
口②①口 |----|
18
口③口口 |①---|
口①口口 |②-③-|
口②口③ |--④-|
口④口① |----|
19
口口①口 |①---|
口口②口 |②-③-|
①口③口 |④---|
③④口口 |----|
20
口③口口 |①---|
口①口口 |②-③-|
口②口③ |--④-|
口④口① |----|
21
口口①口 |①---|
口口②口 |②-③-|
①口③口 |④---|
③④口口 |----|
22
口口口口 |①---|
口①③口 |②-③-|
口②口口 |--④-|
③④④① |----|
23
①④口③ |①---|
口口②口 |②-③-|
口③①口 |④---|
口口口口 |----|
24
口口口口 |①---|
口①③口 |②-③-|
口②口口 |--④-|
③④④① |----|
25
①④口③ |①---|
口⑥②口 |②-③-|
口③①口 |④---|
⑤口口口 |⑤-⑥-|
26
口口①口 |①---|
②口口③ |②-③-|
口口①口 |----|
口口口口 |----|
27
口口口⑤ |①---|
口口②口 |②-③-|
口①⑥口 |④---|
③口④③ |⑤-⑥-|
28
口口口口 |①---|
口①口口 |②-③-|
③口口② |--④-|
⑤①口④ |⑤---|
29
口口口口 |①---|
口口口口 |②-③-|
③①口③
口②口口

⑤口口口
口口口口
口⑥④口 |--④-|
口口口口 |⑤-⑥-|
30
口口口口 |①---|
口口①口 |②-③-|
②口④③ |④---|
口口①口 |----|
31
口口口口 |①---|
口口②口 |②-③-|
口①口⑤ |④---|
③口④③ |⑤---|
32
②口口口 |①---|
④①口③ |--②-|
②口口口 |--③-|
口口口口 |--④-|
33
④口口② |①-②-|
口①③口 |③-④-|
④口口② |----|
口口口口 |----|
34
②口②口 |①---|
口口口口 |②---|
口口口口
口①口①

口口口口
口④口③
口口⑤口 |③-④-|
口⑥口⑥ |⑤-⑥-|
35
口①口口 |①---|
口口③口 |②-③-|
口④口② |④---|
⑤口⑤口 |--⑤-|
36
口①口① |①---|
②④②④ |②-③-|
⑤③⑤③ |--④-|
口⑥口⑥ |⑤-⑥-|
37
⑤口口④ |--①-|
③⑥⑤口 |②-③-|
口②口口 |④---|
①口①口 |⑤-⑥-|
38
口口口④ |①---|
口④⑤口 |--②-|
口口③① |③---|
②②口口 |④-⑤-|
39
口⑤口口 |①---|
口口⑤口 |②-③-|
①④口② |④---|
口口③③ |--⑤-|
40
③口②③ |①-②-|
①②⑤① |--③-|
④⑥口④ |--④-|
口口口口 |⑤-⑥-|
41
④口口口 |--①-|
口口口口 |②---|
③口口③ |③---|
口②①口 |--④-|
42
口口①⑤ |①-②-|
口②口⑥ |③-④-|
口口③⑦ |--⑤-|
口④口口 |⑥-⑦-|
43
口④口口 |①-②-|
⑥口③⑥ |③-④-|
口②口口 |--⑤-|
⑤口①⑤ |⑥---|
44
⑤口①口 |①-②-|
⑥②口口 |③-④-|
⑦口③口 |--⑤-|
口④口口 |⑥-⑦-|
45
口④口口 |①-②-|
⑤口③⑤ |③-④-|
⑦②口⑦ |--⑤-|
⑥口①⑥ |⑥-⑦-|
46
口口①⑤ |①-②-|
口②口⑥ |③-④-|
口口③⑦ |--⑤-|
口④口口 |⑥-⑦-|
47
口④口口 |①-②-|
⑥口③⑥ |③-④-|
口②口口 |--⑤-|
⑤口①⑤ |⑥---|
48
⑤口①口 |①-②-|
⑥②口口 |③-④-|
口口③口 |--⑤-|
口④⑦⑦ |⑥-⑦-|
49
④④②② |--①-|
⑤⑤①① |②-③-|
③③口口 |④-⑤-|
⑥⑥口口 |⑥---|
50
口口⑤④ |①---|
口口③① |--②-|
⑤②①口 |③-④-|
口口口口 |--⑤-|
51
口②口口 |--①-|
①口口口 |--②-|
口口口口 |----|
口口口口 |----|
52
口口口口 |①---|
①②口口 |--②-|
口①口口
口口口口

口口口口
⑤口口口
口口③口 |③-④-|
口口⑤④ |--⑤-|
53
口口口③ |--①-|
口口④口 |--②-|
①口口⑤ |--③-|
口②口口 |④-⑤-|
54
①③⑤⑦ |①-②-|
口口口口 |③-④-|
②④⑥⑧ |⑤-⑥-|
口口口口 |⑦-⑧-|
55
口口口口 |--①-|
口①①口 |②---|
口口口口 |----|
口②②口 |----|
56
口口口口 |①---|
口②①口 |--②-|
口①②口 |----|
③口口口 |--③-|
57
③口口① |--①-|
口口②口 |②-③-|
口口口口 |----|
口口口③ |----|
58
⑤⑤⑤口 |①---|
④④④口 |②-③-|
②②②口 |④---|
①③①口 |⑤---|
59
口口口② |①---|
③口③口 |--②-|
⑤口口④ |③-④-|
①口⑤⑥ |⑤-⑥-|
60
口口口口 |①---|
②②口口 |--②-|
口口③口 |----|
①①口口 |③---|
61
①口口① |①---|
③口口④ |②---|
④口口③ |③---|
②口口② |④---|
62
口口口口 |①---|
④①③口 |--②-|
口③①④ |③---|
②口口② |④---|
63
口口口口 |①---|
④②③① |②---|
①③②④ |③---|
口口口口 |④---|
64
②口口② |①---|
口③口① |--②-|
①口③口 |----|
口口口口 |③---|
65
口口口口 |①---|
口口①⑤ |----|
④①口③ |②-③-|
②口口口 |④-⑤-|
66
①③②④ |①---|
⑤口口⑥ |②-③-|
⑦口口口 |④-⑤-|
口口口口 |⑥-⑦-|
67
②口口③ |①---|
口口口口 |②-③-|
口口口口
口口口①

口口口口
口口④口
口口口⑤ |④-⑤-|
⑥口⑥⑦ |⑥-⑦-|
68
口口口口 |①---|
②口⑤⑤ |②-③-|
①口④④ |④---|
口③口口 |⑤---|
69
口口①① |①---|
口口口口 |②---|
⑤③⑤口 |③-④-|
口④②② |⑤---|
70
③⑤③⑤ |①---|
①②①口 |②-③-|
口口④口 |--④-|
口口口口 |⑤---|
71
口口口口 |①---|
①④①④ |②---|
口②口② |--③-|
口口③口 |④---|
72
口口口口 |①---|
口⑥②⑤ |②-③-|
①④①④ |④-⑤-|
口③口口 |⑥---|
73
④口④口 |①---|
③口③口 |②---|
②口②口 |③---|
①口①口 |④---|
74
⑥⑥⑥口 |①---|
④④④口 |②-③-|
②②②⑤ |④-⑤-|
①③①口 |⑥---|
75
口口口③ |①---|
④口④口 |②-③-|
⑥②口⑤ |④-⑤-|
①口⑥⑦ |⑥-⑦-|
76
口口口口 |①---|
③③口口 |②-③-|
口②⑤口 |--④-|
①①④口 |⑤---|
77
①口口① |①---|
③口口④ |②---|
④口口③ |③---|
②口口② |④---|
78
口口口口 |①---|
⑤①④口 |②-③-|
口④①⑤ |④---|
③口②③ |⑤---|
79
口口口口 |①---|
⑤②③① |②---|
①③②⑤ |③-④-|
口④口口 |⑤---|
80
③②④③ |①---|
口⑤口① |②-③-|
①口⑤口 |--④-|
口口口口 |⑤---|
81
口口口口 |①---|
口口①⑥ |②---|
⑤①口④ |③-④-|
③口②口 |⑤-⑥-|
82
①③②④ |①---|
⑤口口⑥ |②-③-|
⑦口口口 |④-⑤-|
口口口口 |⑥-⑦-|
83
②口口③ |①---|
口口口口 |②-③-|
口口口口
口口口①

口口口口
口口④口
口口口⑤ |④-⑤-|
⑥口⑥⑦ |⑥-⑦-|
84
口口口口 |①---|
②⑤⑥⑥ |②-③-|
①口④④ |④-⑤-|
口③口口 |⑥---|
85
口口①① |①---|
口口口口 |②---|
⑤③⑤口 |③-④-|
口④②② |⑤---|
86
③⑤③⑤ |①---|
①②①口 |②-③-|
口口④口 |--④-|
口口口口 |⑤---|
87
口口口口 |①---|
①④①④ |②---|
口②口② |--③-|
口口③口 |④---|
88
口口口口 |①---|
口⑥②⑤ |②-③-|
①④①④ |④-⑤-|
口③口口 |⑥---|
89
④口④口 |①---|
③口③口 |②---|
②口②口 |③---|
①口①口 |④---|
90
口口口口 |①---|
③①口② |--②-|
口②③① |----|
口口口口 |③---|
91
口口口① |----|
口口②口 |--①-|
口口口③ |②-③-|
口口④⑤ |④-⑤-|
92
口口口口 |①---|
①③②口 |--②-|
②口①③ |----|
口口口口 |③---|
93
口口口口 |----|
口口口① |①---|
口①口口 |----|
口口口口 |----|
94
口口口口 |①---|
③①口② |--②-|
口②③① |----|
口口口口 |③---|
95
口口口口 |----|
口口口口 |----|
口口口口 |----|
口口口口 |----|
96
口口口口 |①---|
①③②口 |--②-|
②口①③ |----|
口口口口 |③---|

不確定度: 0

最終更新:2014年08月02日 00:09