Unicorn tail Dustboxxxx RMX
Dustboxxxx

ADVANCED

Level: 8
BPM: 200
Notes: 644

1
口口口口 |----|
口口口口 |----|
口口口口 |----|
口口口口 |----|
2
口口口口 |----|
口②①口 |----|
口口口口 |----|
口口口口 |--①②|
3
口口口口 |①---|
②口口① |--②-|
②口口① |----|
口口口口 |----|
4
口口口口 |----|
口口口口 |----|
口口口口 |----|
口口口口 |----|
5
④口口口 |①---|
口③口口 |②---|
口口②口 |③---|
口口口① |④---|
6
⑥⑤口口 |①---|
口口④③ |②---|
口②口口 |③-④-|
①口口口 |⑤-⑥-|
7
④口口口 |①---|
口③口口 |②---|
口口②口 |③---|
口口口① |④---|
8
⑥⑤口口 |①---|
口口④③ |②---|
口②口口 |③-④-|
①口口口 |⑤-⑥-|
9
口口口④ |①---|
口口③口 |②---|
口②口口 |③---|
①口口口 |④---|
10
口口⑤⑥ |①---|
③④口口 |②---|
口口②口 |③-④-|
口口口① |⑤-⑥-|
11
⑦口口⑧ |①-②-|
口⑤⑥口 |③-④-|
口③④口 |⑤-⑥-|
①口口② |⑦-⑧-|
12
口①①口 |①---|
口口口口 |----|
⑥⑦⑧⑨ |②③④⑤|
②③④⑤ |⑥⑦⑧⑨|
13
①③⑧② |①-②-|
⑦⑤⑥④ |③-④-|
口口口口 |⑤-⑥-|
口口口口 |⑦-⑧-|
14
①口⑧② |①-②-|
⑦口⑥④ |③-④-|
⑤口口口 |⑤-⑥-|
③口口口 |⑦-⑧-|
15
①口⑧口 |①-②-|
口⑦⑥口 |③-④-|
口⑤④口 |⑤-⑥-|
口③②口 |⑦-⑧-|
16
口①口口 |①---|
①口口口 |----|
②③④口 |②--③|
②③④口 |--④-|
17
②⑧口⑦ |①-②-|
④⑥口⑤ |③-④-|
口口口③ |⑤-⑥-|
口口口① |⑦-⑧-|
18
②⑧口⑦ |①-②-|
④⑥口⑤ |③-④-|
口口口③ |⑤-⑥-|
口口口① |⑦-⑧-|
19
口口①口 |①---|
口③①⑤ |----|
②口④口 |②-③-|
口口口口 |④-⑤-|
20
口①口口 |①---|
①口口口 |----|
口口口② |②---|
口口②口 |----|
21
④③②① |--①-|
口口口口 |--②-|
③④①② |--③-|
口口口口 |--④-|
22
口口口口 |--①-|
④③②① |--②-|
口口口口 |--③-|
③④①② |--④-|
23
口口口口 |①---|
⑤口口④ |----|
口口①① |②-③-|
③口口② |④-⑤-|
24
①①①① |①---|
口②②口 |----|
口③③口 |②--③|
口④④口 |--④-|
25
口口①口 |----|
口②口口 |--①-|
口口口① |----|
②口口口 |--②-|
26
口口④③ |--①-|
口口①② |--②-|
口口③④ |--③-|
口①②口 |--④-|
27
口口口口 |①---|
①①口口 |----|
口⑤④口 |②-③-|
口③②口 |④-⑤-|
28
口口①口 |①---|
口②③① |----|
口口口口 |②-③-|
口口口口 |----|
29
口①口口 |①---|
①口口口 |②-③-|
⑤④口口 |④-⑤-|
⑥⑦③② |⑥-⑦-|
30
⑤⑥⑦口 |①-②-|
④③②⑧ |③-④-|
口口①口 |⑤-⑥-|
口口口口 |⑦-⑧-|
31
口口口口 |①-②-|
口⑧⑦口 |③-④-|
④⑤⑥① |⑤-⑥-|
口③②口 |⑦-⑧-|
32
口口口① |①-②-|
口口口② |③-④-|
⑤⑥⑦③ |⑤--⑥|
⑤⑥⑦④ |--⑦-|
33
口①口口 |①---|
①④③② |②-③-|
口⑤⑥⑦ |④-⑤-|
口口口口 |⑥-⑦-|
34
口口⑦口 |①-②-|
口⑥口⑧ |③-④-|
⑤口口口 |⑤-⑥-|
④③②① |⑦-⑧-|
35
口口口② |①---|
①口口口 |----|
口①②口 |②---|
口口口口 |----|
36
口①①口 |①---|
②口口② |----|
①口口① |②---|
口②②口 |----|
37
口口口口 |①---|
口①①口 |----|
口口口口 |----|
①口口① |----|
38
口口口口 |----|
口口口口 |----|
口口口口 |----|
口口口口 |----|
39
口口口口 |----|
口口口口 |----|
口口口口 |----|
口口口口 |----|
40
①口①口 |----|
①口①口 |----|
口①口口 |----|
口口口口 |①---|
41
口口口口 |①---|
口⑤口③ |②---|
②口④口 |③---|
口口①口 |④-⑤-|
42
②口口① |--①-|
口口⑤口 |--②-|
口④口口 |--③-|
③口口口 |④-⑤-|
43
口口①口 |①---|
②口口③ |②---|
口④⑤口 |③---|
口口口口 |④-⑤-|
44
口口口口 |--①-|
口口③口 |--②-|
口④口口 |--③-|
①口⑤② |④-⑤-|
45
⑤口口④ |①---|
口③口口 |②---|
口口②口 |③---|
口①口口 |④-⑤-|
46
口口口口 |--①-|
口口①口 |--②-|
口②口口 |--③-|
口口③口 |----|
47
口口口口 |①---|
口口口口 |----|
②口口口 |②---|
①②口口 |----|
48
②口口口 |①---|
①②口口 |----|
口①②口 |②---|
口口①② |----|
49
口口口① |①---|
口口①口 |②---|
②口口口
口②口口

④口③口
口口⑤口
口④口③ |③---|
口口口⑤ |④-⑤-|
50
口口口口 |--①-|
②①⑤口 |--②-|
口④③口 |--③-|
①②口口 |④-⑤-|
51
口①③口 |①---|
④口⑤② |②---|
①口口③ |③---|
口④②⑤ |④-⑤-|
52
口②③① |--①-|
④口口③ |--②-|
②④①⑤ |--③-|
口口⑤口 |④-⑤-|
53
①⑤口口 |①---|
口①②④ |②---|
③⑤口口 |③---|
口③④② |④-⑤-|
54
口口口口 |--①-|
①口口口 |--②-|
口口②② |--③-|
①口③③ |----|
55
⑧口⑧① |①-②-|
⑦⑥口② |③-④-|
④⑧⑤口 |⑤-⑥-|
③口口口 |⑦-⑧-|
56
口②口② |--①-|
口⑤①⑤ |--②-|
②④②④ |--③-|
③①③① |④-⑤-|
57
②④①③ |①---|
①口口口 |②---|
③口②⑤ |③---|
口口口④ |④-⑤-|
58
②口①口 |--①-|
⑤口口口 |--②-|
④①②口 |--③-|
③口口口 |④-⑤-|
59
口③②① |①---|
口口③② |②---|
口⑤口③ |③---|
口④口口 |④-⑤-|
60
口③④口 |--①-|
⑤口口口 |--②-|
③口②④ |--③-|
口⑤①口 |④-⑤-|
61
②口口① |①---|
口④③口 |②---|
口①②⑤ |③---|
③口口④ |④-⑤-|
62
口②①口 |--①-|
口口口口 |--②-|
口①②口 |--③-|
③口口③ |----|
63
①口口③ |①-②-|
②口口④ |③-④-|
口口口口
口口口口

⑧口⑧口
口口口口
口⑧口⑦ |⑤-⑥-|
⑤口⑥口 |⑦-⑧-|
64
口②口② |--①-|
口⑤①⑤ |--②-|
口④②④ |--③-|
③①③① |④-⑤-|
65
①口①口 |①---|
③⑤③⑤ |②---|
口④口④ |③---|
口②口② |④-⑤-|
66
①口①口 |--①-|
⑤口⑤口 |--②-|
②④②④ |--③-|
③口③口 |④-⑤-|
67
口①口① |①---|
⑤②⑤③ |②---|
口④口④ |③---|
口②口③ |④-⑤-|
68
口②③② |---①|
口④口③ |--②-|
④口⑤口 |--③-|
①口①⑤ |④-⑤-|
69
③口口② |①---|
①口④⑤ |②---|
口③口② |③---|
口①④⑤ |④-⑤-|
70
口口口口 |--①-|
②①口口 |--②-|
口③③口 |--③-|
①②口口 |----|
71
⑧口口口 |①-②-|
口⑦⑥口 |③-④-|
口口口⑤ |⑤-⑥-|
④③②① |⑦-⑧-|
72
⑧⑥①⑦ |①-②-|
⑤口口② |③-④-|
口⑧⑦口 |⑤-⑥-|
口④③口 |⑦-⑧-|
73
口口口口 |----|
口口口口 |----|
口口口口 |----|
口口口口 |----|
74
口口口口 |----|
口口口口 |----|
口口口口 |----|
口口口口 |----|
75
口口口口 |----|
口口口口 |----|
口口口口 |----|
口口口口 |----|
76
口口口口 |----|
口口口口 |----|
口口口口 |----|
口口口口 |----|
77
口口口① |①---|
口①口口 |----|
口口①口 |----|
①口口口 |----|
78
①口口口 |①---|
口口①口 |----|
口①口口 |----|
口口口① |----|
79
口④③② |①-②-|
①口①口 |③-④-|
口口口口
①口①口

⑤口口口
口⑧口⑥
口口⑦口 |⑤-⑥-|
⑧口口口 |⑦-⑧-|
80
口④③口 |①-②-|
②口①口 |③-④-|
④口口③
口②口①

口口口⑤
口口口⑥
口口口口 |⑤--⑥|
口口口⑦ |--⑦-|
81
口口③口 |①-②-|
口①②口 |--③-|
口口口③
①②口口

口④口口
⑥口口⑤
口口④口 |④---|
⑥口口⑤ |⑤-⑥-|
82
①⑤口① |--①-|
⑤口口口 |--②-|
③②②④ |--③-|
口③④口 |④-⑤-|
83
口口①口 |①---|
口③②① |②---|
⑤④③口 |③---|
口⑤口口 |④-⑤-|
84
①口①口 |----|
口②口② |①---|
口③口③ |②--③|
口④口④ |--④-|
85
④①③② |①-②-|
⑤④⑥③ |--③-|
①口②口 |④---|
口⑤口⑥ |⑤-⑥-|
86
口①口① |--①-|
口口口口 |--②-|
②⑤②口 |--③-|
口③④口 |④-⑤-|
87
口⑥⑤⑧ |①-②-|
④③②① |③-④-|
⑦口⑧口 |⑤-⑥-|
口口口口 |⑦-⑧-|
88
①⑤⑥口 |①-②-|
⑤③②④ |③-④-|
⑥①⑦口 |⑤--⑥|
③口④② |--⑦-|
89
口口口口 |①---|
口③②口 |②---|
⑤口口口 |③---|
口①口④ |④-⑤-|
90
口口口口 |--①-|
口②⑤① |--②-|
口④口口 |--③-|
口口③口 |④-⑤-|
91
口①口口 |①---|
口口口② |②---|
③口口⑤ |③---|
口口口④ |④-⑤-|
92
口口口口 |--①-|
口②①③ |--②-|
口口④口 |--③-|
口⑤口口 |④-⑤-|
93
口口口口 |①---|
②口③口 |②---|
⑤口口口 |③---|
④口①口 |④-⑤-|
94
口口口口 |--①-|
口口口① |--②-|
口③②口 |--③-|
口口口口 |----|
95
口口口口 |①---|
口①①口 |----|
口②②口 |②---|
口口口口 |----|
96
口口①口 |①---|
口口口① |----|
口口口口 |----|
口口口口 |----|
97
①口口口 |①---|
口②口口 |②---|
口口③④ |③---|
口口④④ |④---|

不確定度: 0

最終更新:2014年08月02日 00:18