恋愛観測
NU-KO

EXTREME

Level: 9
BPM: 188
Notes: 800

1
口口口口 |----|
④③②① |----|
口口口口 |①②③④|
⑦⑥⑤口 |-⑤⑥⑦|
2
③①①口 |①---|
口④口⑤ |②---|
②口③② |③--④|
口⑤口④ |--⑤-|
3
口①①③ |--①-|
⑤口④口 |②---|
②③口② |③--④|
④口⑤口 |--⑤-|
4
①口口① |----|
口②③口 |----|
口③②口 |①--②|
口口口口 |--③-|
5
①①口口 |----|
口口口口 |----|
口口口口 |①---|
口口①① |----|
6
口④③口 |①---|
口①①口 |②---|
②⑥⑤② |③-④-|
口口口口 |⑤-⑥-|
7
②口口② |--①-|
口口口口 |--②-|
口口口口 |----|
①口口① |----|
8
口④⑥口 |①-②-|
口③⑤口 |③-④-|
口⑧②口 |⑤-⑥-|
口⑦①口 |⑦-⑧-|
9
口⑦⑦口 |--①-|
①⑥⑥② |②-③-|
④口口⑤ |④-⑤-|
口口③口 |⑥-⑦-|
10
②口口口 |----|
①口口口 |①---|
③口①口 |②---|
口②口口 |--③-|
11
口⑦⑦④ |①-②-|
口口口④ |③-④-|
口①②③ |--⑤-|
口⑤⑥④ |⑥-⑦-|
12
②口口口 |----|
①口口口 |①---|
③口①口 |②---|
口②口口 |--③-|
13
口⑦⑦④ |①-②-|
口口口④ |③-④-|
口①②③ |--⑤-|
口⑤⑥④ |⑥-⑦-|
14
②口口口 |----|
①口口口 |①---|
③口①口 |②---|
口②口口 |--③-|
15
口⑤⑤④ |①-②-|
口口口④ |③-④-|
口①②③ |----|
口口口④ |--⑤-|
16
④口口④ |--①-|
口口①口 |②-③-|
口②口口 |----|
⑤③③⑤ |④-⑤-|
17
口口口口 |①---|
③①①② |②---|
口口口口 |③---|
口④④口 |④---|
18
口③口口 |①-②-|
⑤口④④ |③-④-|
②⑧①① |⑤-⑥-|
口⑦⑥口 |⑦-⑧-|
19
②口①① |①---|
③口口口 |--②③|
口口口口
口口口口

口⑥⑩口
口⑦⑪口
④⑧口口 |④⑤⑥⑦|
⑤⑨口口 |⑧⑨⑩⑪|
20
⑦口口③ |①②③④|
口口口④ |⑤⑥⑦-|
口口①⑤ |----|
口口②⑥ |----|
21
口口口① |①---|
口口①口 |--②-|
口①口口
①②口②

③口④口
口口口③
口④口口 |--③-|
口口口口 |--④-|
22
口①口口 |--①-|
口口口口 |--②-|
②口①② |----|
口②②口 |----|
23
②口①① |①---|
口口口① |--②-|
③①口③ |--③-|
①④⑤② |-④⑤-|
24
口②口② |--①-|
①②②② |--②-|
口口②口 |--③-|
③口口④ |--④-|
25
①②③口 |--①②|
④⑤⑥口 |③-④⑤|
⑦⑧⑨口 |⑥-⑦⑧|
⑩口口口 |⑨-⑩-|
26
②⑥口③ |①-②③|
口④⑤口 |④⑤⑥-|
口⑧⑦口 |--⑦-|
口口①⑨ |⑧-⑨-|
27
口②①口 |①---|
①口口② |②---|
②口口①
口①②口

口口⑥口
⑥④③口
口口⑤⑥ |③-④-|
口⑥口口 |⑤-⑥-|
28
口①口口 |--①-|
口②⑤① |----|
①④③口 |②-③-|
口口①口 |④-⑤-|
29
⑤口①① |①---|
④口口口 |②-③-|
②口口② |④---|
①口口③ |⑤---|
30
口④①① |①---|
口③④② |②---|
口②③③ |③---|
口①⑤口 |④-⑤-|
31
⑥口口② |①---|
④口⑤口 |②-③-|
②口⑥③ |④-⑤-|
①口⑦口 |⑥-⑦-|
32
口⑤口⑤ |①---|
口④口口 |②-③-|
口②口④ |④---|
口①口③ |⑤---|
33
口口②口 |①---|
口口③口 |②-③-|
②口口口
①口①口

口口口口
⑤④口⑤
口口④口 |④-⑤-|
⑥⑥⑥⑥ |--⑥-|
34
②口口① |----|
口口③口 |①-②-|
口⑤④口 |③-④-|
口口口⑥ |⑤-⑥-|
35
口②①口 |①---|
①口口② |②---|
②口口①
口①②口

口口⑥口
⑥④③口
口口⑤⑥ |③-④-|
口⑥口口 |⑤-⑥-|
36
口①口口 |--①-|
口②口① |----|
①④③口 |②-③-|
口口①口 |④---|
37
⑤口①① |①---|
④口口口 |②-③-|
②口口② |④---|
①口口③ |⑤---|
38
口口①① |①---|
④③④② |②---|
口②口③ |③---|
⑤①⑤口 |④-⑤-|
39
⑥②⑥② |--①-|
口④口口 |②-③-|
口③①③ |--④-|
⑤口⑤口 |⑤-⑥-|
40
②口口① |----|
口①②口 |----|
口口口口 |①---|
口口口口 |②---|
41
④①①④ |①---|
口口口口 |②---|
③②②③ |③---|
口口口口 |④---|
42
口③口口 |①---|
③①③① |②---|
④③②④ |③---|
口①口① |④---|
43
⑤⑨④口 |①②③④|
口③⑩⑧ |⑤---|
⑦口②口 |--⑥⑦|
口①口⑥ |⑧⑨⑩-|
44
④口③口 |--①②|
口②⑩口 |③④--|
⑦⑨口⑧ |--⑤⑥|
⑤口①⑥ |⑦⑧⑨⑩|
45
⑤⑨④口 |①②③④|
口③⑩⑧ |⑤---|
⑦口②口 |--⑥⑦|
口①口⑥ |⑧⑨⑩-|
46
④口⑤① |--①②|
④②口⑤ |③---|
口口③口 |④---|
口口③口 |⑤---|
47
口⑤口④ |①②③④|
口③口口 |⑤---|
口口②口
①①口口

⑨口口口
口口口⑧
⑦口⑩⑥ |--⑥⑦|
口口口口 |⑧⑨⑩-|
48
⑨④口⑩ |--①②|
口口③⑧ |③④--|
⑦②口口 |--⑤⑥|
⑤口①⑥ |⑦⑧⑨⑩|
49
口⑤④口 |①②③④|
口③⑧口 |⑤---|
口⑦②⑨ |--⑥⑦|
口①⑥⑨ |⑧-⑨-|
50
①口口③ |--①-|
②②口口 |②---|
⑤口④口 |③-④-|
口口④口 |--⑤-|
51
口②①口 |①-②-|
口口③口 |③-④-|
口口口口 |----|
④④口口 |----|
52
⑦⑧①① |①-②-|
④⑤②② |③-④-|
④⑤⑥⑥ |⑤-⑥-|
③③⑧⑦ |⑦-⑧-|
53
口口①口 |--①-|
⑥②口口 |-②--|
口口口⑤ |③-④-|
④③口口 |⑤-⑥-|
54
①①口④ |①-②-|
口口口④ |③-④-|
②②口口
口口③③

⑧口⑦口
口⑦⑤口
口口⑤⑧ |⑤-⑥-|
⑥⑥口口 |⑦-⑧-|
55
口⑥口③ |--①-|
④口口口 |-②--|
口②⑤口 |③-④-|
口口①口 |⑤-⑥-|
56
口口口口 |①-②③|
口口口① |-④⑤⑥|
④⑥口⑤
口③②口

⑩口口⑦
口⑨⑧⑪
口口口口 |⑦-⑧⑨|
⑫口口口 |-⑩⑪⑫|
57
⑭④③⑪ |①②③④|
②⑫⑨⑮ |⑤⑥⑦⑧|
⑧⑩①⑤ |⑨⑩⑪⑫|
⑯⑥⑬⑦ |⑬⑭⑮⑯|
58
口①①口 |①--②|
口④④口 |--③-|
③③②② |④--⑤|
⑥⑥⑤⑤ |--⑥-|
59
①口口① |①--②|
③⑥④② |--③-|
③④⑥② |④--⑤|
⑤口口⑤ |--⑥-|
60
③口②① |①-②③|
口⑬⑦⑥ |④⑤⑥-|
⑤⑧⑫⑪ |⑦⑧⑨⑩|
⑩口④⑨ |⑪-⑫⑬|
61
口口①① |①---|
口③②口 |----|
口口④口 |--②-|
口口口口 |③-④-|
62
口②①口 |①---|
①口口② |②---|
②口口①
口①②口

口口③口
③口口口
口口口③ |----|
口③口口 |--③-|
63
口①口口 |--①-|
口口口① |----|
①口口口 |----|
口口①口 |----|
64
①口口① |①---|
口口口口 |②-③-|
口口口口 |----|
口②③口 |----|
65
①④口① |①---|
②口口② |②---|
③⑤口③ |③---|
口口口口 |④-⑤-|
66
口口①口 |----|
③口口③ |①-②-|
口口②口 |----|
④口口④ |③-④-|
67
②③④⑤ |----|
口口①口 |--①-|
口口口口 |②-③-|
口口口口 |④-⑤-|
68
③③口口 |①---|
②①②① |--②-|
①②①② |----|
口口③③ |③---|
69
③口①② |--①-|
口①②口 |----|
口②①口 |②---|
②①口③ |③---|
70
口②①口 |①---|
①口口② |②---|
②口口①
口①②口

口口⑥口
⑥④③口
口口⑤⑥ |③-④-|
口⑥口口 |⑤-⑥-|
71
口①口口 |--①-|
口②口① |----|
①④③口 |②-③-|
口口①口 |④---|
72
⑤口①① |①---|
④口口口 |②-③-|
②口口② |④---|
①口口③ |⑤---|
73
口口①① |①---|
④③④② |②---|
口②口③ |③---|
⑤①⑤口 |④-⑤-|
74
⑥②⑥② |--①-|
口④口口 |②-③-|
口③①③ |--④-|
⑤口⑤口 |⑤-⑥-|
75
②口口① |----|
口②①口 |----|
口口口口 |①---|
口口口口 |②---|
76
④①①④ |①---|
①口口① |②---|
③②②③ |③---|
口口口口 |④---|
77
口③口口 |①---|
③①③① |②---|
④③②④ |③---|
口①口① |④---|
78
④④④④ |①-②-|
⑤口⑤口 |--③-|
口③③口 |--④-|
①①②② |--⑤-|
79
口口口口 |--①-|
口①口① |--②-|
口口口口 |----|
②②②② |----|
80
⑤④口④ |①-②-|
①④④④ |③---|
口口④② |④---|
③口口⑤ |⑤---|
81
口②①口 |①---|
①口口② |----|
②口口① |②---|
口①②口 |----|
82
口口口口 |①---|
口①①口 |----|
口①①口
口口口口

口⑤口口
口口⑥④
③口口口 |--②③|
口口口② |④⑤⑥-|
83
口口④口 |--①②|
口③⑪口 |③④⑤-|
⑧⑩②⑨ |--⑥⑦|
⑥①⑤⑦ |⑧⑨⑩⑪|
84
①⑬口② |①②③④|
③⑤⑫④ |⑤⑥⑦-|
⑪口⑥⑩ |--⑧⑨|
⑨⑦口⑧ |⑩⑪⑫⑬|
85
④口①⑤ |①②③④|
⑥②口③ |⑤⑥⑦-|
口⑩⑨⑧ |--⑧⑨|
口口⑦⑪ |⑩-⑪-|
86
口口口④ |①-②-|
口口口⑤ |③-④-|
⑥⑦口口 |⑤-⑥-|
①②③⑧ |⑦-⑧-|
87
口口②③ |①-②-|
④④口口 |③-④-|
⑦⑦⑤⑥ |⑤-⑥-|
①①⑧⑧ |⑦-⑧-|
88
③⑤口④ |①-②-|
口⑦⑥② |③-④-|
口口口口 |⑤-⑥-|
①⑧⑧口 |⑦-⑧-|

不確定度: 0

最終更新:2014年08月02日 00:13