[E]
dj MAX STEROID

BASIC

Level: 6
BPM: 152
Notes: 455

1
口口口口 |----|
口口口口 |----|
口口口口 |----|
口口口口 |----|
2
⑤口口⑤ |①-②-|
口③口口 |③---|
①④④② |④---|
口口口口 |⑤---|
3
口口口口 |①--②|
口④④口 |--③-|
口⑤⑤口 |④---|
①②③口 |⑤---|
4
口③②① |①--②|
④口口④ |--③-|
⑤口口⑤ |④---|
口口口口 |⑤---|
5
口口口口 |①--②|
口③口口 |--③-|
⑤②口④ |④---|
⑤①口④ |⑤---|
6
④口①⑤ |①--②|
④口②⑤ |--③-|
口口③口 |④---|
口口口口 |⑤---|
7
口口口口 |①---|
口②②口 |----|
口③③口 |②---|
口①①口 |③---|
8
口③②① |①--②|
④口口④ |--③-|
⑤口口⑤ |④---|
口口口口 |⑤---|
9
口口口口 |①--②|
口③口口 |--③-|
⑤②口④ |④---|
⑤①口④ |⑤---|
10
口①①口 |①---|
④③②④ |----|
④②③④ |②--③|
口口口口 |--④-|
11
口口口口 |①---|
口③②口 |----|
口②③口 |②---|
口①①口 |③---|
12
口③②① |①--②|
⑤口口④ |--③-|
④口口⑤ |④---|
口口口口 |⑤---|
13
口口口口 |①--②|
口③口口 |--③-|
⑤②口④ |④---|
④①口⑤ |⑤---|
14
⑤口①④ |①--②|
④口②⑤ |--③-|
口口③口 |④---|
口口口口 |⑤---|
15
口口口口 |①---|
口③②口 |----|
口②③口 |②---|
口①①口 |③---|
16
口③②① |①--②|
⑤口口④ |--③-|
④口口⑤ |④---|
口口口口 |⑤---|
17
⑤⑦⑦⑥ |①-②-|
口③④口 |③-④-|
口①②口 |--⑤-|
口口口口 |⑥-⑦-|
18
口口口口 |--①-|
①②②① |----|
口②②口 |----|
口口口口 |②---|
19
口口口口 |①---|
①③②① |----|
①②③① |②---|
口口口口 |③---|
20
③口口③ |①---|
口口口口 |----|
口口口口 |②---|
②①①② |③---|
21
口口口口 |①---|
③①①② |----|
②口口③ |②---|
口口口口 |③---|
22
口③②口 |①---|
口口口口 |----|
口②③口 |②---|
口①①口 |③---|
23
③口口② |①---|
口①①口 |----|
②口口③ |②---|
口口口口 |③---|
24
口③③口 |①---|
①口口① |----|
口口口口 |②---|
口②②口 |③---|
25
③口口② |①---|
口①①口 |----|
②口口③ |②---|
口口口口 |③---|
26
口口口口 |①---|
口口口口 |----|
口①①口
口口口口

口口②口
口③口口
口口④口 |②-③-|
口⑤口口 |④-⑤-|
27
口口口口 |①---|
③口口③ |②---|
①口口① |③---|
②④口口 |④---|
28
①③③① |①---|
口口口口 |②---|
口口口口 |③---|
口口②④ |④---|
29
口口口口 |①---|
口③③口 |②---|
口①①口 |③---|
②④口口 |④---|
30
①口口① |①-②-③-|
②口口② |④---|
③口口③
④口口④

口⑤⑥⑦
口口口口
口口口口 |⑤--⑥|
口口口口 |--⑦-|
31
口口口口 |①---|
③口口③ |②---|
①口口① |③---|
②④口口 |④---|
32
①③③① |①---|
口口口口 |②---|
口口口口 |③---|
口口②④ |④---|
33
口口口口 |①---|
口③③口 |②---|
口①①口 |③---|
②④口口 |④---|
34
①①①① |①---|
口口口口 |----|
口口口口 |----|
口口口口 |----|
35
③口口③ |①---|
口①①口 |--②-|
口②②口 |③---|
口口口口 |----|
36
口③③口 |①---|
①口口① |--②-|
②口口② |③---|
口口口口 |----|
37
③口口③ |①---|
口①①口 |--②-|
口②②口 |③---|
口口口口 |----|
38
口③③口 |①---|
①口口① |--②-|
②口口② |③---|
口口口口 |----|
39
口口口口 |①--②|
口④⑤口 |--③-|
口⑥口口 |--④-|
①②③口 |⑤-⑥-|
40
口③②① |①--②|
④⑤⑥口 |--③-|
口口口口 |④--⑤|
口口口口 |--⑥-|
41
①口口② |①-②-|
③口口④ |③-④-|
口口口口
口口口口

⑤口口⑤
口口口口
口口口口 |----|
口口口口 |--⑤-|
42
口口口口 |①---|
③①①② |----|
②口口③ |②---|
口口口口 |③---|
43
口口口口 |①---|
口②③口 |----|
口④口口 |--②-|
口①①口 |③-④-|
44
口②口① |①---|
③④⑤口 |--②-|
口口口口 |③--④|
口口口口 |--⑤-|
45
①口口② |①-②-|
③⑤⑤④ |③-④-|
口口口口 |----|
口口口口 |--⑤-|
46
①口口① |①---|
②口口② |②---|
口③④口 |③-④-|
口口口口 |----|
47
口口口口 |①--②|
口④⑤口 |--③-|
口⑥口口 |--④-|
①②③口 |⑤-⑥-|
48
口口②① |①--②|
③④⑤口 |----|
口口口口 |③--④|
口口口口 |--⑤-|
49
①口口② |①-②-|
③⑤⑤④ |③-④-|
口口口口 |----|
口口口口 |--⑤-|
50
①口口① |①---|
②口口② |②---|
口③④口 |③-④-|
口口口口 |----|
51
口口口口 |①--②|
口④⑤口 |--③-|
口⑥口口 |--④-|
①②③口 |⑤-⑥-|
52
口②①口 |①-②-|
③④⑤口 |----|
口口口口 |③--④|
口口口口 |--⑤-|
53
①口口② |①-②-|
③⑤⑤④ |③-④-|
口口口口 |----|
口口口口 |--⑤-|
54
①①①① |①---|
口②②口 |----|
口②②口 |----|
口口口口 |②---|
55
口口口口 |①---|
③口口③ |②---|
①口口① |③---|
②④口口 |④---|
56
①③③① |①---|
口口口口 |②---|
口口口口 |③---|
口口②④ |④---|
57
口口口口 |①---|
口③③口 |②---|
口①①口 |③---|
②④口口 |④---|
58
口①①口 |①---|
⑤口口④ |②---|
③口口⑥ |③-④-|
口口②口 |⑤-⑥-|
59
口口口口 |①---|
③口口③ |②---|
口①口口 |③---|
②④口口 |④---|
60
①③③① |①---|
口口口口 |②---|
口口口口 |③---|
口口②④ |④---|
61
口口口口 |①---|
口③③口 |②---|
口①①口 |③---|
②④口口 |④---|
62
口①①口 |①---|
⑤口口④ |②---|
③口口⑥ |③-④-|
口口②口 |⑤-⑥-|
63
口②②口 |①---|
③口口③ |----|
口①口口 |②---|
口口口口 |--③-|
64
口口口口 |--①-|
口口口口 |----|
①③②① |②---|
口②③口 |--③-|
65
口②口口 |----|
口口①口 |--①-|
口③④口 |②---|
口口口口 |③-④-|
66
①口口① |--①-|
②口口② |--②-|
③口口③ |--③-|
④口口④ |--④-|
67
口②②口 |①---|
③口口③ |----|
口口口口 |②---|
口①①口 |--③-|
68
口口口口 |--①-|
口口口口 |----|
①③②① |②---|
口②③口 |--③-|
69
口②口口 |----|
口口①口 |--①-|
口③④口 |②---|
口口口口 |③-④-|
70
①口口① |--①-|
②口口② |--②-|
③口口③ |--③-|
④口口④ |--④-|
71
④②口口 |①---|
口口口口 |②---|
口口③口 |③---|
口①①口 |④---|
72
口口口口 |①---|
②口口③ |②---|
④口口① |③---|
口口口口 |④---|
73
口口口① |①---|
口口③口 |②---|
口②口口 |③---|
口④口口 |④---|
74
口口口口 |①---|
口口口① |②---|
④口口③ |③---|
②口口口 |④---|
75
口口口口 |----|
口口口口 |----|
口口口口 |----|
口口口口 |----|
76
①口口① |①---|
口①①口 |----|
口口口口 |----|
口口口口 |----|


不确定度: 0

最終更新:2012年11月08日 18:10