Romancing Layer
TAG

BASIC

Level: 3
BPM: 150
Notes: 200

1
口口口口 |----|
口口口口 |----|
口口口口 |----|
口口口口 |----|
2
口口口口 |①---|
①口口口 |----|
①口口口 |----|
口口口口 |----|
3
口口口口 |①---|
口口口① |----|
口口口① |----|
口口口口 |----|
4
口口口口 |①---|
口①口口 |----|
口①口口 |----|
口口口口 |----|
5
口口口口 |①---|
口口①口 |----|
口口①口 |----|
口口口口 |----|
6
口口口口 |①---|
①②口口 |----|
①口口口 |②---|
口口口口 |----|
7
口口口口 |①---|
口口②① |----|
口口口① |②---|
口口口口 |----|
8
口口口口 |①---|
①②口口 |----|
①口口口 |②---|
口口口口 |----|
9
口口口口 |①---|
口口②① |----|
口口口① |②---|
口口口口 |----|
10
①②口口 |①---|
口口口口 |②---|
口口口口 |----|
口口口口 |----|
11
口口②① |①---|
口口口口 |②---|
口口口口 |----|
口口口口 |----|
12
口口口口 |①---|
口口口口 |----|
口②②口 |②---|
口①①口 |----|
13
②口口② |①---|
③①①③ |----|
口口口口 |②---|
口口口口 |③---|
14
口口口口 |①---|
口口口口 |②---|
①②口口 |----|
口口口口 |----|
15
口口口口 |①---|
口口口口 |②---|
口口②① |----|
口口口口 |----|
16
口①①口 |①---|
口②②口 |----|
口口口口 |②---|
口口口口 |----|
17
③口口③ |①---|
口口口口 |----|
②①①② |②---|
口口口口 |③---|
18
口口口口 |①---|
①②口口 |②---|
口口口口 |----|
口口口口 |----|
19
口口口口 |①---|
口口②① |②---|
口口口口 |----|
口口口口 |----|
20
口口口口 |①---|
口口口口 |----|
口②②口 |②---|
口①①口 |----|
21
②口口② |①---|
③①①③ |----|
口口口口 |②---|
口口口口 |③---|
22
口口口口 |①---|
口口口口 |②---|
①②口口 |----|
口口口口 |----|
23
口口口口 |①---|
口口口口 |②---|
口口②① |----|
口口口口 |----|
24
口①①口 |①---|
口②②口 |----|
口口口口 |②---|
口口口口 |----|
25
③口口③ |①---|
口口口口 |----|
②①①② |②---|
口口口口 |③---|
26
口口口口 |①---|
口①①口 |----|
口口口口 |----|
口口口口 |----|
27
口口口口 |①---|
①口口② |----|
口口口口 |②---|
口口口口 |----|
28
口口口口 |①---|
口口口口 |----|
①口口② |②---|
口口口口 |----|
29
口口口口 |①---|
口①②口 |②---|
口③④口 |③---|
口口口口 |④---|
30
口①①口 |①---|
口口口口 |----|
口口口口 |----|
口口口口 |----|
31
口口口口 |①---|
口①①口 |----|
口口口口 |----|
口口口口 |----|
32
口口口口 |①---|
口口口口 |----|
口①①口 |----|
口口口口 |----|
33
②口口② |①---|
口口口口 |----|
口口口口 |②---|
口①①口 |----|
34
口口口口 |①---|
①②④③ |②---|
口口口口 |③---|
口口口口 |④---|
35
口②②口 |①---|
口口口口 |----|
口①①口 |②---|
口口口口 |----|
36
①口口② |①---|
①口口② |----|
口口口口 |②---|
口口口口 |----|
37
口口口口 |①---|
口口口口 |②---|
①②③④ |③---|
口口口口 |④---|
38
口①①口 |①---|
口口口口 |----|
口口口口 |----|
口口口口 |----|
39
口口口口 |①---|
口①①口 |----|
口口口口 |----|
口口口口 |----|
40
①口口① |①---|
口口口口 |----|
②口口② |②---|
口口口口 |----|
41
口口口口 |①---|
①口口① |----|
口口口口 |②---|
②口口② |----|
42
口口口口 |①---|
①②④③ |②---|
口口口口 |③---|
口口口口 |④---|
43
③口口③ |①--②|
②口口② |--③-|
①口口① |----|
口口口口 |----|
44
口①②口 |①---|
口①②口 |----|
口口口口 |②---|
口口口口 |----|
45
口口口口 |①---|
口口口口 |②---|
①②③④ |③---|
口口口口 |④---|
46
口①①口 |①---|
口口口口 |----|
口口口口 |----|
口口口口 |----|
47
口口口口 |①---|
口①①口 |----|
口口口口 |----|
口口口口 |----|
48
②口口② |①---|
口①①口 |----|
口口口口 |②---|
口口口口 |----|
49
口①①口 |①---|
②口口② |----|
口口口口 |②---|
口口口口 |----|
50
①②③④ |①---|
口口口④ |②---|
口口口口 |③---|
口口口口 |④---|
51
口口口口 |①---|
口口口口 |②---|
①②③④ |③---|
口口口④ |④---|
52
①口口② |①---|
③口口④ |②---|
口口口口 |③---|
口口口口 |④---|
53
口口口口 |①---|
口口口口 |②---|
①①②② |③---|
③③④④ |④---|
54
口口口口 |①---|
①①口口 |----|
①①口口 |----|
口口口口 |----|
55
口口口口 |①---|
口口①① |----|
口口①① |----|
口口口口 |----|
56
口口口口 |①---|
口①①口 |----|
②②②② |②---|
口口口口 |----|
57
①①①① |----|
口口口口 |----|
口口口口 |①---|
口口口口 |----|
58
口口口口 |①---|
②口口③ |--②-|
②①①③ |③---|
口口口口 |----|


不確定度: 0

最終更新:2014年01月08日 16:54