Romancing Layer
TAG

ADVANCED

Level: 9
BPM: 150
Notes: 558

1
口口口口 |----|
口口口口 |----|
口口口口 |----|
口口口口 |----|
2
口⑦⑧⑨ |①-②-|
⑤⑥口口 |③-④-|
①②③④ |⑤-⑥⑦|
口口口口 |-⑧-⑨|
3
⑤⑥口口 |①-②-|
口⑦⑧⑨ |③-④-|
①②③④ |⑤-⑥⑦|
口口口口 |-⑧-⑨|
4
口⑦⑧⑨ |①-②-|
⑤⑥口口 |③-④-|
①②③④ |⑤-⑥⑦|
口口口口 |-⑧-⑨|
5
⑤⑥⑧⑨ |①-②-|
口⑦口口 |③-④-|
①②③④ |⑤-⑥⑦|
口口口口 |-⑧-⑨|
6
口⑦⑧⑨ |①-②-|
⑤⑥口口 |③-④-|
①②③④ |⑤-⑥⑦|
口口口口 |-⑧-⑨|
7
⑤⑥口口 |①-②-|
口⑦⑧⑨ |③-④-|
①②③④ |⑤-⑥⑦|
口口口口 |-⑧-⑨|
8
口⑦⑧⑨ |①-②-|
⑤⑥口口 |③-④-|
①②③④ |⑤-⑥⑦|
口口口口 |-⑧-⑨|
9
⑤⑥⑧⑨ |①-②-|
口⑦口口 |③-④-|
①②③④ |⑤-⑥⑦|
口口口口 |-⑧-⑨|
10
⑦口口口 |--①-|
⑥④口⑧ |②-③④|
①③口② |-⑤-⑥|
口口⑤口 |⑦-⑧-|
11
⑦口口⑧ |--①-|
⑥④口口 |②-③④|
①③口② |-⑤-⑥|
口口⑤口 |⑦-⑧-|
12
口口口口 |①-②③|
口口口③ |-④⑤⑥|
口⑤⑥②
①④口口

⑨口口口
⑧口⑦口
口口口⑪ |⑦-⑧⑨|
⑫口口⑩ |-⑩⑪⑫|
13
⑧口⑦③ |①-②③|
⑨口⑥② |-④⑤⑥|
①⑤⑩口 |⑦-⑧⑨|
口④⑪口 |-⑩⑪-|
14
⑦口口口 |--①-|
⑥④口⑧ |②-③④|
①③口② |-⑤-⑥|
口口⑤口 |⑦-⑧-|
15
⑦口口⑧ |--①-|
⑥④口口 |②-③④|
①③口② |-⑤-⑥|
口口⑤口 |⑦-⑧-|
16
口口口口 |①-②③|
口口口③ |-④⑤⑥|
口⑤⑥②
①④口口

⑨口口口
⑧口⑦口
口口口⑪ |⑦-⑧⑨|
⑫口口⑩ |-⑩⑪⑫|
17
口口⑦③ |①-②③|
口⑧⑥② |-④⑤⑥|
①⑤⑧口 |⑦---|
口④口口 |⑧---|
18
⑦口口口 |--①-|
⑥④口⑧ |②-③④|
①③口② |-⑤-⑥|
口口⑤口 |⑦-⑧-|
19
⑦口口⑧ |--①-|
⑥④口口 |②-③④|
①③口② |-⑤-⑥|
口口⑤口 |⑦-⑧-|
20
口口口口 |①-②③|
口口口③ |-④⑤⑥|
口⑤⑥②
①④口口

⑨口口口
⑧口⑦口
口口口⑪ |⑦-⑧⑨|
⑫口口⑩ |-⑩⑪⑫|
21
⑧口⑦③ |①-②③|
⑨口⑥② |-④⑤⑥|
①⑤⑩口 |⑦-⑧⑨|
口④⑪口 |-⑩⑪-|
22
⑦口口口 |--①-|
⑥④口⑧ |②-③④|
①③口② |-⑤-⑥|
口口⑤口 |⑦-⑧-|
23
⑦口口⑧ |--①-|
⑥④口口 |②-③④|
①③口② |-⑤-⑥|
口口⑤口 |⑦-⑧-|
24
口口口口 |①-②③|
口口口③ |-④⑤⑥|
口⑤⑥②
①④口口

⑨口口口
⑧口⑦口
口口口⑪ |⑦-⑧⑨|
⑫口口⑩ |-⑩⑪⑫|
25
口口⑦③ |①-②③|
⑧⑧⑥② |-④⑤⑥|
①⑤⑧⑧ |⑦---|
口④口口 |⑧---|
26
②②②② |①---|
口口口口 |②---|
口③④口 |----|
①①①① |--③④|
27
②口口口 |①--②|
口口⑥③ |--③-|
⑤口口① |④--⑤|
口口口④ |--⑥-|
28
口③口口 |①--②|
口①口口 |--③-|
④⑥口⑤ |--④-|
口口②口 |⑤-⑥-|
29
口口口口 |①-②-|
②④⑤③ |③-④-|
口口①口 |⑤-⑥-|
⑥⑦⑧口 |⑦-⑧-|
30
①①口口 |①---|
口口口口 |----|
口②③④ |--②-|
口口口口 |③-④-|
31
③口口④ |①---|
①口口② |②---|
口口口口 |③---|
口口口口 |④---|
32
口口口口 |①--②|
口②③口 |--③-|
口④⑤口 |----|
口①①口 |--④⑤|
33
口③③口 |①---|
口口口口 |--②-|
口口口① |③---|
口②②口 |----|
34
②⑧⑧② |①-②-|
③④⑤⑥ |③④⑤⑥|
⑨⑩⑪⑫ |⑦-⑧-|
①⑦⑦① |⑨⑩⑪⑫|
35
③④④③ |①--②|
口②②口 |--③-|
口⑤⑥⑦ |--④-|
①口口① |⑤⑥⑦-|
36
口口④⑤ |①-②③|
①口②③ |-④⑤-|
口口⑨⑩ |⑥-⑦⑧|
⑥口⑦⑧ |-⑨⑩-|
37
①⑤⑥⑦ |①-②③|
口②③④ |④-⑤⑥|
⑨口口口 |⑦-⑧-|
口口口⑧ |--⑨-|
38
⑤口口⑥ |①---|
口②③④ |--②③|
⑦口口① |④-⑤-|
口口口口 |⑥-⑦-|
39
口口口口 |①-②-|
口②③口 |③-④-|
口④口①
口口口口

口口口口
口⑦口口
口口⑥口 |--⑤-|
口⑤口口 |⑥-⑦-|
40
①口②③ |①-②③|
口口④⑤ |-④⑤-|
⑥口⑦⑧ |⑥-⑦⑧|
口口⑨⑩ |-⑨⑩-|
41
①口⑤③ |①-②③|
口④②口 |-④⑤-|
⑥口⑩⑧ |⑥-⑦⑧|
口⑨⑦口 |-⑨⑩-|
42
②⑧⑧② |①-②-|
③④⑤⑥ |③④⑤⑥|
⑨⑩⑪⑫ |⑦-⑧-|
①⑦⑦① |⑨⑩⑪⑫|
43
③③③③ |①--②|
②②②② |--③-|
口⑤⑥⑦ |--④-|
①④④① |⑤⑥⑦-|
44
口口④⑤ |①-②③|
①口②③ |-④⑤-|
口口⑨⑩ |⑥-⑦⑧|
⑥口⑦⑧ |-⑨⑩-|
45
①⑤⑥⑦ |①-②③|
口②③④ |④-⑤⑥|
⑨口口口 |⑦-⑧-|
口口口⑧ |--⑨-|
46
⑤口口⑥ |①---|
口②③④ |--②③|
⑦口口① |④-⑤-|
口口口口 |⑥-⑦-|
47
口④③口 |①-②-|
④②口③ |③-④-|
口口口①
口口口口

口口口口
口⑦口口
口口⑥口 |--⑤-|
口⑤口口 |⑥-⑦-|
48
①口②③ |①-②③|
口口④⑤ |-④⑤-|
⑥口⑦⑧ |⑥-⑦⑧|
口口⑨⑩ |-⑨⑩-|
49
①口⑤③ |①-②③|
口④②口 |-④⑤-|
⑥口口⑧ |⑥-⑦⑧|
口⑨⑦⑩ |-⑨⑩-|
50
⑬④⑤⑥ |①②③④|
⑭①②③ |⑤⑥⑦⑧|
⑮⑦⑧⑨ |⑨⑩⑪⑫|
⑯⑩⑪⑫ |⑬⑭⑮⑯|
51
⑬①②③ |①②③④|
⑭④⑤⑥ |⑤⑥⑦⑧|
⑮⑦⑧⑨ |⑨⑩⑪⑫|
⑯⑩⑪⑫ |⑬⑭⑮⑯|
52
⑩⑨②① |①②③④|
⑫⑪④③ |⑤⑥⑦⑧|
⑭⑬⑥⑤ |⑨⑩⑪⑫|
⑯⑮⑧⑦ |⑬⑭⑮⑯|
53
⑨⑩①② |①②③④|
⑪⑫③④ |⑤⑥⑦⑧|
⑬⑭⑤⑥ |⑨⑩⑪⑫|
⑮⑯⑦⑧ |⑬⑭⑮⑯|
54
①②③④ |----|
⑤口口口 |①②③④|
⑨⑧⑦⑥ |--⑤-|
口口口口 |⑥⑦⑧⑨|
55
①②③④ |----|
⑤口口口 |①②③④|
⑨⑧⑦⑥ |--⑤-|
口口口口 |⑥⑦⑧⑨|
56
③口口③ |①---|
口口口口 |--②-|
口口口口 |③---|
②①①② |----|
57
①①①① |----|
②②②② |----|
③③③③ |①--②|
口口口口 |--③-|
58
③③③③ |①---|
口口口口 |--②-|
口口口口 |③---|
②①①② |----|
59
口口口口 |①---|
①①①① |----|
口①①口 |----|
口①①口 |----|


不確定度: 0

最終更新:2014年01月08日 16:54