Stand Alone Beat Masta
GUHROOVY

BASIC

Level: 6
BPM: 200
Notes: 485

1
口口口口 |----|
口口口口 |----|
口口口口 |----|
口口口口 |----|
2
口口口口 |①---|
口口口口 |----|
口口口口 |----|
①口口口 |----|
3
①口口口 |①---|
口口口口 |----|
口口口口 |----|
口口口口 |----|
4
口口口口 |①---|
口口口口 |----|
口口口口 |----|
①①口口 |----|
5
①①口口 |①---|
口口口口 |----|
口口口口 |----|
口口口口 |----|
6
口口口口 |①---|
口口口口 |----|
口口口口 |----|
①①①口 |----|
7
①①①口 |①---|
口口口口 |----|
口口口口 |----|
口口口口 |----|
8
口口口口 |①---|
口口口口 |----|
口口口口 |----|
①①①① |----|
9
①①①① |①---|
口口口口 |----|
口口口口 |----|
口口口口 |----|
10
①口口口 |①---|
口口口② |②---|
口③口口 |③---|
③口口口 |----|
11
口口口③ |①---|
口口③口 |②---|
②口口口 |③---|
口口口① |----|
12
口口①口 |①---|
②口口口 |②---|
口口③口 |③---|
口口口③ |----|
13
③口口口 |①---|
口③口口 |②---|
口口口② |③---|
①口口口 |----|
14
⑤⑥③② |①---|
口口口口 |②-③-|
口口口口 |④---|
④④①① |⑤-⑥-|
15
⑤⑥③② |①---|
口口口口 |②-③-|
口口口口 |④---|
④④①① |⑤-⑥-|
16
⑧口口⑦ |①-②-|
口④③口 |③-④-|
口②①口 |⑤-⑥-|
⑥口口⑤ |⑦-⑧-|
17
口口②口 |①---|
口口口② |----|
②①①口 |②---|
口②口口 |----|
18
②③④口 |①---|
①口口口 |②---|
口口口口 |③---|
④③②① |④---|
19
③④口① |①---|
②口口② |②---|
①口口③ |③---|
口口口④ |④---|
20
口口①② |①---|
口口口③ |②---|
④口口④ |③---|
③②①口 |④---|
21
②③④口 |①---|
①口口口 |②---|
口口口口 |③---|
④③②① |④---|
22
③④口① |①---|
②口口② |②---|
①口口③ |③---|
口口口④ |④---|
23
口口①② |①---|
口口口③ |②---|
④口口④ |③---|
③②①口 |④---|
24
②③④口 |①---|
①口口口 |②---|
口口口口 |③---|
④③②① |④---|
25
口口口口 |①---|
口①①口 |----|
口①①口 |----|
口口口口 |----|
26
口口口② |①---|
①口②① |--②-|
①③口① |--③-|
③口口口 |----|
27
口①①口 |①---|
口②口口 |②---|
口口②口 |③---|
口③③口 |----|
28
②口口口 |①---|
①②口① |--②-|
①口③① |--③-|
口口口③ |----|
29
口①①口 |①---|
口口口口 |②---|
口口口口 |----|
口②②口 |----|
30
口口口② |①---|
①口②① |--②-|
①③口① |--③-|
③口口口 |----|
31
口①①口 |①---|
口②口口 |②---|
口口②口 |③---|
口③③口 |----|
32
②口口口 |①---|
①②口① |--②-|
①口③① |--③-|
口口口③ |----|
33
口②②口 |①---|
口口口口 |②---|
口口口口 |----|
口①①口 |----|
34
口口口④ |①---|
①②④口 |②---|
口口口③ |③---|
口口③口 |④---|
35
口④口口 |①---|
②口口口 |②---|
口③口口 |③---|
①口口口 |④---|
36
④口口口 |①---|
口④②① |②---|
③口口口 |③---|
口③口口 |④---|
37
口口④口 |①---|
口口口② |②---|
口口③口 |③---|
口口口① |④---|
38
口口口④ |①---|
①②④口 |②---|
口口口③ |③---|
口口③口 |④---|
39
口④口口 |①---|
②口口口 |②---|
口③口口 |③---|
①口口口 |④---|
40
①口口① |①---|
口口口口 |----|
口③③口 |②---|
口②②口 |③---|
41
口口口口 |①---|
①口口① |----|
口口口口 |----|
口口口口 |----|
42
口口口④ |①---|
①②④口 |②---|
口口口③ |③---|
口口③口 |④---|
43
口④口口 |①---|
②口口口 |②---|
口③口口 |③---|
①口口口 |④---|
44
④口口口 |①---|
口④②① |②---|
③口口口 |③---|
口③口口 |④---|
45
口口④口 |①---|
口口口② |②---|
口口③口 |③---|
口口口① |④---|
46
口口口④ |①---|
①②④口 |②---|
口口口③ |③---|
口口③口 |④---|
47
口④口口 |①---|
②口口口 |②---|
口③口口 |③---|
①口口口 |④---|
48
①口口① |①---|
口口口口 |----|
口③③口 |②---|
口②②口 |③---|
49
口口口口 |①---|
①口口① |----|
口口口口 |----|
口口口口 |----|
50
口口口口 |----|
口口口口 |----|
口口口口 |----|
口口口口 |----|
51
①口口口 |①---|
口口口口 |----|
口口口口 |----|
口口口口 |----|
52
口口口① |①---|
口口口口 |----|
口口口口 |----|
口口口口 |----|
53
口口口口 |①---|
口口口口 |----|
口口口口 |----|
①口口口 |----|
54
口口口口 |①---|
口口口口 |----|
口口口口 |----|
口口口① |----|
55
口口口口 |①---|
口①口口 |----|
口口口口 |----|
口口口口 |----|
56
口口口口 |①---|
口口①口 |----|
口口口口 |----|
口口口口 |----|
57
口口口口 |①---|
口口口口 |----|
口①口口 |----|
口口口口 |----|
58
口口口口 |①---|
口口口口 |----|
口口①口 |----|
口口口口 |----|
59
②口②口 |①---|
口①①口 |②---|
口口口口 |③---|
④③④③ |--④-|
60
口③口③ |--①-|
②口②口 |--②-|
口①口① |--③-|
口口口口 |----|
61
①口①口 |----|
口口口口 |①---|
口③③口 |②---|
口②口② |--③-|
62
②口口② |--①-|
口①①口 |--②-|
口口口口 |----|
口口口口 |----|
63
口①口① |----|
口口口口 |①---|
口口口口 |②---|
②③②③ |--③-|
64
③口③口 |--①-|
口②口② |--②-|
①口①口 |--③-|
口口口口 |----|
65
口①口① |①---|
①口①口 |----|
口口口口 |----|
口口口口 |----|
66
口口口口 |①---|
口口口口 |----|
口①口① |----|
①口①口 |----|
67
②口②口 |①---|
口①①口 |②---|
口口口口 |③---|
④③④③ |--④-|
68
口③口③ |--①-|
②口②口 |--②-|
口①口① |--③-|
口口口口 |----|
69
①口①口 |----|
口口口口 |①---|
口③③口 |②---|
口②口② |--③-|
70
②口口② |--①-|
口①①口 |--②-|
口口口口 |----|
口口口口 |----|
71
口①口① |----|
口口口口 |①---|
口口口口 |②---|
②③②③ |--③-|
72
③口③口 |--①-|
口②口② |--②-|
①口①口 |--③-|
口口口口 |----|
73
口①口① |①---|
①口①口 |----|
口口口口 |----|
口口口口 |----|
74
口口口口 |①---|
口口口口 |----|
口①口① |----|
①口①口 |----|
75
口②④口 |①---|
④口口② |②---|
①口口③ |③---|
口③①口 |④---|
76
②口口② |①---|
口③③口 |②---|
口④④口 |③---|
①口口① |④---|
77
口④②口 |①---|
②口口④ |②---|
③口口① |③---|
口①③口 |④---|
78
①口口① |①---|
口②②口 |②---|
口③③口 |③---|
④口口④ |④---|
79
口②④口 |①---|
④口口② |②---|
①口口③ |③---|
口③①口 |④---|
80
①口口① |①---|
口③③口 |②---|
口④④口 |③---|
②口口② |④---|
81
口④②口 |①---|
②口口④ |②---|
③口口① |③---|
口①③口 |④---|
82
口口口② |①---|
②①①口 |----|
口①①② |②---|
②口口口 |----|
83
口③①口 |①---|
④口口② |②---|
①口口③ |③---|
口②④口 |④---|
84
①口口② |①---|
口②①口 |②---|
口④③口 |③---|
③口口④ |④---|
85
口①③口 |①---|
②口口④ |②---|
③口口① |③---|
口④②口 |④---|
86
③口口④ |①---|
口④③口 |②---|
口②①口 |③---|
①口口② |④---|
87
口③①口 |①---|
④口口② |②---|
①口口③ |③---|
口②④口 |④---|
88
①口口② |①---|
口②①口 |②---|
口④③口 |③---|
③口口④ |④---|
89
口①③口 |①---|
②口口④ |②---|
③口口① |③---|
口④②口 |④---|
90
口口口口 |①---|
口①①口 |----|
口①①口 |----|
口口口口 |----|
91
①口口口 |①---|
口口口口 |----|
口口口口 |----|
口口口口 |----|
92
口口口口 |----|
口口口口 |----|
口口口口 |----|
口口口口 |----|
93
口①口口 |①---|
①口口口 |----|
口口口口 |----|
口口口口 |----|
94
口口口口 |----|
口口口口 |----|
口口口口 |----|
口口口口 |----|
95
口口①口 |①---|
口①口口 |----|
①口口口 |----|
口口口口 |----|
96
口口口口 |----|
口口口口 |----|
口口口口 |----|
口口口口 |----|
97
口口口① |①---|
口口①口 |----|
口①口口 |----|
①口口口 |----|
98
口口口口 |----|
口口口口 |----|
口口口口 |----|
口口口口 |----|
99
口口口口 |①---|
口口口口 |----|
口口口口 |----|
口口口① |----|


不確定度: 0

最終更新:2014年01月08日 16:54