Gimme a Big Beat
kors k

BASIC

Level: 4
BPM: 138
Notes: 352

1
口口口口 |----|
口口口口 |----|
口口口口 |----|
口口口口 |----|
2
口口口口 |----|
口口口口 |----|
口口口口 |----|
口口口口 |----|
3
③口口③ |①---|
口①①口 |----|
口①①口 |②---|
②口口② |--③-|
4
口口口口 |----|
①口口② |----|
①口口② |①---|
口口口口 |②---|
5
②口口② |①---|
口①①口 |----|
口①①口 |②---|
③口口③ |--③-|
6
口口口口 |----|
①口口② |----|
①口口② |①---|
口口口口 |②---|
7
③口口③ |①---|
口①①口 |----|
口①①口 |②---|
②口口② |--③-|
8
口口口口 |----|
①口口② |----|
①口口② |①---|
口口口口 |②---|
9
②口口② |①---|
口①①口 |----|
口①①口 |②---|
③口口③ |--③-|
10
口口口口 |----|
口①②口 |----|
口口口口 |①---|
口口口口 |②---|
11
①口口③ |①---|
②口口④ |②---|
口口口口 |③---|
口口口口 |④---|
12
口口口口 |①---|
口①③口 |②---|
口②④口 |③---|
口口口口 |④---|
13
口口口口 |①---|
口口口口 |②---|
①口口③ |③---|
②口口④ |④---|
14
口口口口 |①---|
口口口口 |②---|
口①③口 |③---|
口②④口 |④---|
15
④口口口 |①---|
③口口口 |②---|
②口口口 |③---|
①口口口 |④---|
16
口①②③ |①---|
口口口④ |②---|
口口口口 |③---|
口口口口 |④---|
17
口口口口 |①---|
口口口口 |②---|
口口口① |③---|
口④③② |④---|
18
口口口口 |①---|
口①①口 |----|
口口口口 |----|
口口口口 |----|
19
①④口口 |①---|
口口口口 |②---|
②③口口 |③---|
口口口口 |④---|
20
口口④① |①---|
口口口口 |②---|
口口③② |③---|
口口口口 |④---|
21
口口口口 |①---|
①④口口 |②---|
口口口口 |③---|
②③口口 |④---|
22
口口口口 |①---|
口口④① |②---|
口口口口 |③---|
口口③② |④---|
23
①④口口 |①---|
口口口口 |②---|
②③口口 |③---|
口口口口 |④---|
24
口口④① |①---|
口口口口 |②---|
口口③② |③---|
口口口口 |④---|
25
口口口口 |①---|
①④口口 |②---|
口口口口 |③---|
②③口口 |④---|
26
③口口③ |①---|
口口口口 |----|
口①①口 |②---|
②口口② |--③-|
27
④①口口 |①---|
口口口口 |②---|
③②口口 |③---|
口口口口 |④---|
28
口口①④ |①---|
口口口口 |②---|
口口②③ |③---|
口口口口 |④---|
29
口口口口 |①---|
④①口口 |②---|
口口口口 |③---|
③②口口 |④---|
30
口口口口 |①---|
口口①④ |②---|
口口口口 |③---|
口口②③ |④---|
31
①④口口 |①---|
口口口口 |②---|
②③口口 |③---|
口口口口 |④---|
32
口口④① |①---|
口口口口 |②---|
口口③② |③---|
口口口口 |④---|
33
④口口④ |①---|
③口口③ |②---|
②口口② |③---|
①口口① |④---|
34
口口口口 |①---|
②①①③ |----|
口①①口 |②---|
口口口口 |③---|
35
口④口口 |①---|
口③口口 |②---|
口②口口 |③---|
口①口口 |④---|
36
口口④口 |①---|
口口③口 |②---|
口口②口 |③---|
口口①口 |④---|
37
④口口口 |①---|
③口口口 |②---|
②口口口 |③---|
①口口口 |④---|
38
口口口④ |①---|
口口口③ |②---|
口口口② |③---|
口口口① |④---|
39
口①②口 |①---|
口③④口 |②---|
口口口口 |③---|
口口口口 |④---|
40
口口口口 |①---|
口口口口 |②---|
口①②口 |③---|
口③④口 |④---|
41
口口口口 |①---|
口口口口 |②---|
③口口④ |③---|
①口口② |④---|
42
③口口④ |①---|
①口口② |②---|
口口口口 |③---|
口口口口 |④---|
43
③口口③ |①---|
口①①口 |----|
口①①口 |②---|
②口口② |--③-|
44
口口口口 |----|
口口口口 |----|
口口口口 |----|
口口口口 |----|
45
②口口② |①---|
口①①口 |----|
口①①口 |②---|
③口口③ |--③-|
46
口口口口 |----|
口口口口 |----|
口口口口 |----|
口口口口 |----|
47
③口口③ |①---|
口①①口 |----|
口①①口 |②---|
②口口② |--③-|
48
口口口口 |----|
口口口口 |----|
口口口口 |----|
口口口口 |----|
49
②口口② |①---|
口①①口 |----|
口①①口 |②---|
③口口③ |--③-|
50
口口口口 |----|
口①②口 |----|
口口口口 |①---|
口口口口 |②---|
51
①口口③ |①---|
②口口④ |②---|
口口口口 |③---|
口口口口 |④---|
52
口口口口 |①---|
口①③口 |②---|
口②④口 |③---|
口口口口 |④---|
53
口口口口 |①---|
口口口口 |②---|
①口口③ |③---|
②口口④ |④---|
54
①③③① |①---|
口口口口 |----|
口口口口 |②---|
口②②口 |③---|
55
②口口② |①---|
③①①③ |----|
④①①④ |②--③|
口口口口 |--④-|
56
口口口口 |----|
③口口口 |①---|
口口口口 |②---|
口①②口 |③---|
57
④口口④ |①---|
口①①口 |----|
③①①③ |②--③|
②口口② |--④-|
58
口①②口 |----|
③口口口 |①---|
口口口口 |②---|
口口口口 |③---|
59
②口口② |①---|
③①①③ |----|
④①①④ |②--③|
口口口口 |--④-|
60
口口口口 |----|
③口口口 |①---|
口口口口 |②---|
口①②口 |③---|
61
④口口④ |①---|
口①①口 |----|
③①①③ |②--③|
②口口② |--④-|
62
口①②口 |----|
③口口口 |①---|
口口口口 |②---|
口口口口 |③---|
63
③口口③ |①---|
口②②口 |②---|
口②②口 |----|
①口口① |③---|
64
口④口④ |①---|
③口③口 |②---|
口②口② |③---|
①口①口 |④---|
65
④口口④ |①---|
③口口③ |②---|
②口口② |③---|
①口口① |④---|
66
口④④口 |①---|
口③③口 |②---|
口②②口 |③---|
口①①口 |④---|
67
③口口③ |①---|
口②②口 |②---|
口②②口 |----|
①口口① |③---|
68
口④口④ |①---|
③口③口 |②---|
口②口② |③---|
①口①口 |④---|
69
④口口④ |①---|
③口口③ |②---|
②口口② |③---|
①口口① |④---|
70
口④④口 |①---|
口③③口 |②---|
口②②口 |③---|
口①①口 |④---|
71
口口口口 |①---|
①口口① |----|
①口口① |----|
口口口口 |----|


不確定度: 0

最終更新:2014年01月08日 16:53