Gimme a Big Beat
kors k

ADVANCED

Level: 7
BPM: 138
Notes: 581

1
口口口口 |----|
口口口口 |----|
口口口口 |----|
口口口口 |----|
2
①口口口 |----|
口口口口 |----|
口口口口 |----|
口口口口 |--①-|
3
⑤口口⑤ |①---|
④①①④ |--②-|
③①①③ |③--④|
口口②口 |--⑤-|
4
口②②口 |--①-|
④口口⑤ |②---|
⑥口口③ |③-④-|
①口口口 |⑤-⑥-|
5
口口②口 |①---|
③①①③ |--②-|
⑤①①⑤ |③--④|
④口口④ |--⑤-|
6
④口口口 |----|
口口口③ |----|
②口口口 |①-②-|
口口①口 |③-④-|
7
⑤口口⑤ |①---|
④①①④ |--②-|
③①①③ |③--④|
口口②口 |--⑤-|
8
口②②口 |--①-|
④口口⑤ |②---|
⑥口口③ |③-④-|
①口口口 |⑤-⑥-|
9
④口②④ |①---|
口①①口 |--②-|
③①①③ |③--④|
⑤口口⑤ |--⑤-|
10
口①口口 |----|
口口②口 |----|
口③口口 |①-②-|
口口④口 |③-④-|
11
口口口② |①-②-|
口口口③ |③-④-|
口口口④
①①口口

口口口口
⑦口口口
⑥口口口 |--⑤-|
⑤口口口 |⑥-⑦-|
12
④⑤⑥口 |--①-|
口口口口 |②-③-|
口口口口 |--④-|
口③②① |⑤-⑥-|
13
口口口① |--①-|
⑥口口② |②-③-|
⑤口口③ |--④-|
④口口口 |⑤-⑥-|
14
④⑤⑥口 |--①-|
口口口口 |②-③-|
口口口口 |--④-|
口③②① |⑤-⑥-|
15
⑦⑧口① |①-②-|
口口口② |③-④-|
④口口口 |⑤-⑥-|
③口⑥⑤ |⑦-⑧-|
16
⑦⑧口① |①-②-|
口口口② |③-④-|
④口口口 |⑤-⑥-|
③口⑥⑤ |⑦-⑧-|
17
口口口口 |①-②-|
②口口① |③-④-|
④⑥⑤③ |⑤-⑥-|
口⑧⑦口 |⑦-⑧-|
18
④口①④ |--①-|
口②口口 |②-③-|
口口③口 |④---|
口⑤⑤口 |⑤---|
19
口①①口 |①---|
口②③口 |②-③-|
④⑤⑥⑦ |④-⑤-|
口口口口 |⑥-⑦-|
20
口口口口 |①---|
⑦⑥⑤④ |②-③-|
口口口口 |④-⑤-|
①③②① |⑥-⑦-|
21
①②③① |①---|
口口口口 |②-③-|
④⑤⑥⑦ |④-⑤-|
口口口口 |⑥-⑦-|
22
口口口口 |①---|
⑦⑥⑤④ |②-③-|
口口口口 |④-⑤-|
①③②① |⑥-⑦-|
23
①②③① |①---|
口口口口 |②-③-|
④⑤⑥⑦ |④-⑤-|
口口口口 |⑥-⑦-|
24
口口口口 |①---|
⑦⑥⑤④ |②-③-|
口口口口 |④-⑤-|
①③②① |⑥-⑦-|
25
①②③① |①---|
口口口口 |②-③-|
④⑤⑥⑦ |④-⑤-|
口口口口 |⑥-⑦-|
26
④口口④ |①---|
③口口③ |----|
②口口② |②--③|
口①①口 |--④-|
27
口①①口 |①---|
口②③口 |②-③-|
④⑤⑥⑦ |④-⑤-|
口口口口 |⑥-⑦-|
28
口口口口 |①---|
⑦⑥⑤④ |②-③-|
口口口口 |④-⑤-|
①③②① |⑥-⑦-|
29
①②③① |①---|
口口口口 |②-③-|
④⑤⑥⑦ |④-⑤-|
口口口口 |⑥-⑦-|
30
③⑤④② |①--②|
口①①口 |--③-|
口口口口 |④-⑤-|
②⑦⑥③ |⑥-⑦-|
31
①②③① |①---|
口口口口 |②-③-|
④⑤⑥⑦ |④-⑤-|
口口口口 |⑥-⑦-|
32
③口口④ |①---|
⑤①①⑥ |②---|
口口口口 |③-④-|
口②②口 |⑤-⑥-|
33
③口口④ |①--②|
③①②④ |--③-|
口①②口 |-④--|
⑤⑤⑥⑥ |⑤-⑥-|
34
⑥①②⑦ |①-②-|
口③④口 |③-④-|
⑤口口⑧ |⑤-⑥-|
口口口口 |⑦-⑧-|
35
口⑤②口 |①-②-|
口⑥③口 |③-④-|
口⑦④口 |⑤-⑥-|
①⑧口口 |⑦-⑧-|
36
口口口① |①-②-|
口口口② |③-④-|
⑦口⑧③ |⑤-⑥-|
⑤口⑥④ |⑦-⑧-|
37
⑤口口② |①-②-|
⑥口口③ |③-④-|
⑦口口④ |⑤-⑥-|
⑧①口口 |⑦-⑧-|
38
口口①口 |①-②-|
口口②口 |③-④-|
口⑦③⑧ |⑤-⑥-|
口⑤④⑥ |⑦-⑧-|
39
口④③② |①-②-|
口口口口 |③-④-|
⑤⑥⑦⑧ |⑤-⑥-|
①口口口 |⑦-⑧-|
40
口口⑧⑥ |①-②-|
④③②① |③-④-|
口口⑦⑤ |⑤-⑥-|
口口口口 |⑦-⑧-|
41
⑤⑥⑦⑧ |①-②-|
①口口口 |③-④-|
口口口口 |⑤-⑥-|
口④③② |⑦-⑧-|
42
口口口口 |①-②-|
口⑧⑥口 |③-④-|
④③②① |⑤-⑥-|
口⑦⑤口 |⑦-⑧-|
43
①口口① |①---|
口口口口 |--②-|
②口口②
口口口口

⑤口口⑤
口口口口
口④④口 |③--④|
口③③口 |--⑤-|
44
口①口口 |--①-|
口③②口 |②-③-|
⑤口口④ |④-⑤-|
⑦口口⑥ |⑥-⑦-|
45
①口口① |①---|
②口口② |--②-|
口口口口
口口口口

⑤口口⑤
口⑤⑤口
口④④口 |③--④|
③口口③ |--⑤-|
46
口口①口 |--①-|
②口口③ |②-③-|
④口口⑤ |④-⑤-|
口⑥⑦口 |⑥-⑦-|
47
①口口① |①---|
口口口口 |--②-|
②口口②
口口口口

⑤口口⑤
口口口口
口④④口 |③--④|
口③③口 |--⑤-|
48
口①口口 |--①-|
口③②口 |②-③-|
⑤口口④ |④-⑤-|
⑦口口⑥ |⑥-⑦-|
49
①口口① |①---|
②口口② |--②-|
口口口口
口口口口

⑤口口⑤
口⑤⑤口
口④④口 |③--④|
③口口③ |--⑤-|
50
口④①口 |--①-|
口口⑤口 |②-③-|
②⑥口③ |④-⑤-|
口口⑦口 |⑥-⑦-|
51
口口口② |①-②-|
口口口③ |③-④-|
口口口④
①口口口

口口口口
⑦口口口
⑥口口口 |--⑤-|
⑤口口口 |⑥-⑦-|
52
④⑤⑥口 |--①-|
口口口口 |②-③-|
口口口口 |--④-|
口③②① |⑤-⑥-|
53
口口口① |--①-|
⑥口口② |②-③-|
⑤口口③ |--④-|
④口口口 |⑤-⑥-|
54
口⑤⑤口 |--①-|
口④④口 |②-③-|
口⑤⑤口 |④---|
口③②① |⑤---|
55
①口口① |①---|
口口口口 |--②-|
②口口②
口口口口

⑤口口⑤
口口口口
口④④口 |③--④|
口③③口 |--⑤-|
56
口①口口 |--①-|
口③②口 |②-③-|
⑤口口④ |④-⑤-|
⑦口口⑥ |⑥-⑦-|
57
①口口① |①---|
②口口② |--②-|
口口口口
口口口口

⑤口口⑤
口⑤⑤口
口④④口 |③--④|
③口口③ |--⑤-|
58
口口①口 |--①-|
②口口③ |②-③-|
④口口⑤ |④-⑤-|
口⑥⑦口 |⑥-⑦-|
59
①口口① |①---|
口口口口 |--②-|
②口口②
口口口口

⑤口口⑤
口口口口
口④④口 |③--④|
口③③口 |--⑤-|
60
口①口口 |--①-|
口③②口 |②-③-|
⑤口口④ |④-⑤-|
⑦口口⑥ |⑥-⑦-|
61
①口口① |①---|
②口口② |--②-|
口口口口
口口口口

⑤口口⑤
口⑤⑤口
口④④口 |③--④|
③口口③ |--⑤-|
62
口口①口 |--①-|
②口口③ |②-③-|
④口口⑤ |④-⑤-|
口⑥⑦口 |⑥-⑦-|
63
②⑥⑥② |①---|
①③口① |②-③-|
②口④② |④--⑤|
口⑤⑤口 |--⑥-|
64
③口口⑦ |--①-|
口②⑥口 |②-③-|
口⑤①口 |④-⑤-|
④口口口 |⑥-⑦-|
65
⑤①①⑤ |①---|
②⑤⑤② |--②-|
③口口③ |③--④|
口④④口 |--⑤-|
66
口④⑤口 |--①-|
口⑥⑦口 |②-③-|
口口①口 |④-⑤-|
②口口③ |⑥-⑦-|
67
②⑥⑥② |①---|
①③口① |②-③-|
②口④② |④--⑤|
口⑤⑤口 |--⑥-|
68
③口口⑦ |--①-|
口②⑥口 |②-③-|
口⑤①口 |④-⑤-|
④口口口 |⑥-⑦-|
69
⑤①①⑤ |①---|
②⑤⑤② |--②-|
③口口③ |③--④|
口④④口 |--⑤-|
70
⑮①②⑯ |①②③④|
③⑬⑭④ |⑤⑥⑦⑧|
⑪⑤⑥⑫ |⑨⑩⑪⑫|
⑦⑨⑩⑧ |⑬⑭⑮⑯|
71
口①①口 |①---|
口口口口 |----|
口口口口 |----|
口口口口 |----|


不確定度: 0

最終更新:2014年01月08日 16:53