ポップミュージック論
ギラギラメガネ団

BASIC

Level: 3
BPM: 190
Notes: 195

1
口口口口 |----|
口口口口 |----|
口口口口 |----|
口口口口 |----|
2
口口口口 |----|
口口口口 |----|
口口口口 |----|
口口口口 |----|
3
①口口① |①---|
口口口口 |----|
口口口口 |----|
口口口口 |----|
4
口口口口 |①---|
①口口① |----|
口口口口 |----|
口口口口 |----|
5
口口口口 |①---|
口口口口 |----|
①口口① |----|
口口口口 |----|
6
口口口口 |①---|
口口口口 |----|
口口口口 |----|
①口口① |----|
7
口口口口 |①---|
口口口口 |----|
口口口口 |②---|
口①②口 |----|
8
口口口口 |①---|
口口口口 |----|
口①②口 |②---|
口口口口 |----|
9
③口口④ |①---|
①口口② |②---|
口口口口 |③---|
口口口口 |④---|
10
口①②口 |①---|
口③④口 |②---|
口口口口 |③---|
口口口口 |④---|
11
口口口口 |①---|
口口口口 |②---|
口口口口 |③---|
①②③④ |④---|
12
口③口口 |①---|
口口②口 |②---|
口①口口 |③---|
口口口口 |----|
13
口口口① |①---|
②口口口 |----|
口口口口 |②---|
口口口口 |----|
14
口口口口 |①---|
口口①口 |----|
口②口口 |②---|
口口口口 |----|
15
口口口口 |①---|
口口口口 |②---|
口口口口 |③---|
①②③④ |④---|
16
口③口口 |①---|
口口②口 |②---|
口①口口 |③---|
口口口口 |----|
17
口口口① |①---|
②口口口 |----|
口口口口 |②---|
口口口口 |----|
18
口口口口 |①---|
口口①口 |----|
口②口口 |②---|
口口口口 |----|
19
口口口口 |①---|
口口口口 |----|
口口口口 |----|
①口口口 |----|
20
口口口口 |①---|
①①口口 |----|
口口口口 |----|
口口口口 |----|
21
口口①口 |①---|
口口②口 |----|
口口口口 |②---|
口口口口 |----|
22
口口口口 |①---|
口口口口 |----|
口口①口 |----|
口口口口 |----|
23
口口口口 |①---|
口口口口 |----|
口口口口 |----|
口口口① |----|
24
口口口口 |①---|
口口口口 |----|
口①口口 |----|
口口口口 |----|
25
口口①口 |①---|
口②口口 |----|
口口口口 |②---|
口口口口 |----|
26
口口口口 |①---|
口口口口 |----|
口口①口 |②---|
口②口口 |----|
27
口口口口 |①---|
口口口口 |----|
口口口口 |----|
①口口口 |----|
28
口口口口 |①---|
①①口口 |----|
口口口口 |----|
口口口口 |----|
29
口口①口 |①---|
口口②口 |----|
口口口口 |②---|
口口口口 |----|
30
口口口口 |①---|
口口口口 |----|
口口①口 |----|
口口口口 |----|
31
口口口口 |①---|
口口口口 |----|
口口口口 |----|
口口①① |----|
32
口口口口 |①---|
口口口口 |----|
①①口口 |----|
口口口口 |----|
33
口口口口 |①---|
口口①① |----|
口口口口 |----|
口口口口 |----|
34
①①口口 |①---|
口口口口 |----|
口口口口 |----|
口口口口 |----|
35
口口口① |①---|
口口口② |----|
口口口口 |②---|
口口口口 |----|
36
口口口口 |①---|
口口口口 |----|
口口口① |----|
口口口口 |----|
37
①口口口 |①---|
②口口口 |----|
口口口口 |②---|
口口口口 |----|
38
口口口口 |①---|
口口口口 |----|
①口口口 |----|
口口口口 |----|
39
口口口口 |①---|
口口①口 |----|
口②口口 |②---|
口口口口 |----|
40
口口口口 |①---|
口口口口 |----|
口口口口 |②---|
口②①口 |----|
41
口口口口 |①---|
口口口口 |----|
口口①口 |----|
口口口口 |----|
42
口口口口 |①---|
口①②口 |----|
口口口口 |②---|
口口口口 |----|
43
口①口口 |①---|
口口口口 |----|
口口口口 |----|
口口口口 |----|
44
口口口口 |①---|
口口口口 |----|
①口口② |②---|
口口口口 |----|
45
口口口口 |①---|
①①口口 |----|
口口口口 |----|
口口口口 |----|
46
口口口口 |①---|
口口①① |----|
口口口口 |----|
口口口口 |----|
47
①①①① |①---|
口口口口 |----|
口口口口 |----|
口口口口 |----|
48
口口口口 |①---|
口①②口 |----|
口口口口 |②---|
口口口口 |----|
49
口口口口 |①---|
口口口口 |②---|
①②③④ |③---|
口口口口 |④---|
50
口口口口 |①---|
口口口口 |②---|
口口口口 |③---|
①②③④ |④---|
51
口口口口 |①---|
口③④口 |②---|
口①②口 |③---|
口口口口 |④---|
52
口①口口 |①---|
口口口口 |----|
口口口口 |----|
口口口口 |----|
53
口口口口 |①---|
③口口④ |②---|
①口口② |③---|
口口口口 |④---|
54
①口口口 |①---|
口口口口 |----|
口口口口 |----|
口口口口 |----|
55
口①①口 |①---|
口②②口 |----|
口口口口 |②---|
口口口口 |----|
56
口口口口 |①---|
①口口① |----|
②口口② |②---|
口口口口 |----|
57
口口口口 |①---|
口口口口 |----|
口①①口 |②---|
口②②口 |----|
58
口口口口 |①---|
口口口口 |----|
②口口② |②---|
①口口① |----|
59
口口口口 |①---|
口③④口 |②---|
口①②口 |③---|
口口口口 |④---|
60
口①口口 |①---|
口口口口 |----|
口口口口 |----|
口口口口 |----|
61
口口口口 |①---|
③口口④ |②---|
①口口② |③---|
口口口口 |④---|
62
①口口口 |①---|
口口口口 |----|
口口口口 |----|
口口口口 |----|
63
口口①① |①---|
口口口口 |----|
口口口口 |----|
口口口口 |----|
64
①①口口 |①---|
口口口口 |----|
口口口口 |----|
口口口口 |----|
65
口口口口 |①---|
口口口口 |----|
口口口口 |----|
口口①① |----|
66
口口口口 |①---|
口口口口 |----|
口口口口 |----|
①①口口 |----|
67
口口口口 |①---|
口口口口 |----|
口口①① |----|
口口口口 |----|
68
口口口口 |①---|
①①口口 |----|
口口口口 |----|
口口口口 |----|
69
口口口口 |①---|
口口口口 |----|
①①口口 |----|
口口口口 |----|
70
口口口口 |①---|
口口①① |----|
口口口口 |----|
口口口口 |----|
71
①口口① |①---|
口口口口 |----|
口口口口 |----|
口口口口 |----|
72
口口口口 |①---|
①口口① |----|
口口口口 |----|
口口口口 |----|
73
口口口口 |①---|
口口口口 |----|
①口口① |----|
口口口口 |----|
74
口口口口 |①---|
口口口口 |②---|
口③④口 |③---|
口①②口 |④---|
75
口口口口 |①---|
口①口口 |----|
口口口口 |----|
口口口口 |----|
76
口口口① |①---|
口口口口 |----|
口口口口 |----|
口口口口 |----|
77
①口口口 |①---|
口口口口 |----|
口口口口 |----|
口口口口 |----|
78
口①①口 |----|
口②②口 |----|
口口口口 |①---|
口口口口 |②---|
79
口口口口 |①---|
口口口口 |----|
口①①口 |②---|
②口口② |----|
80
口口口口 |①---|
①口口① |----|
口口口口 |②---|
口②②口 |----|
81
③①①③ |①---|
口口口口 |②---|
④②②④ |③---|
口口口口 |④---|
82
③③③③ |①---|
口①①口 |②---|
口口口口 |③---|
口②②口 |----|


不確定度: 0

最終更新:2014年01月08日 16:52