ポップミュージック論
ギラギラメガネ団

ADVANCED

Level: 6
BPM: 190
Notes: 386

1
口口口口 |----|
口口口口 |----|
口口口口 |----|
口口口口 |----|
2
①②③④ |①---|
口口口口 |②---|
口口口口 |③---|
口口口口 |④---|
3
口口口口 |①---|
口口口口 |----|
口①②口 |②---|
口口口口 |----|
4
口口口口 |①---|
口①①口 |②---|
②口口② |③---|
口③③口 |----|
5
口①②口 |①---|
③口口④ |②---|
口口口口 |③---|
口口口口 |④---|
6
口口口口 |①---|
口口口口 |②---|
口①②口 |③---|
③口口④ |④---|
7
①口口② |①---|
①口口② |----|
口口口口 |②---|
口口口口 |----|
8
口口口口 |①---|
口①②口 |----|
口①②口 |②---|
口口口口 |----|
9
口口口口 |①---|
口口口口 |----|
①口口② |②---|
①口口② |----|
10
口①①口 |①---|
口②②口 |②---|
③口口③ |③---|
④口口④ |④---|
11
口口口口 |①---|
口口口口 |----|
口①②口 |②---|
口口口口 |----|
12
口口口口 |①---|
口①①口 |②---|
②口口② |③---|
口③③口 |----|
13
口①②口 |①---|
③口口④ |②---|
口口口口 |③---|
口口口口 |④---|
14
口口口口 |①---|
口口口口 |②---|
口①②口 |③---|
③口口④ |④---|
15
口口口口 |①---|
口口口口 |----|
口①②口 |②---|
口口口口 |----|
16
口口口口 |①---|
口①①口 |②---|
②口口② |③---|
口③③口 |----|
17
口①②口 |①---|
③口口④ |②---|
口口口口 |③---|
口口口口 |④---|
18
口口口口 |①---|
口口口口 |②---|
口①②口 |③---|
③口口④ |④---|
19
口①口口 |①---|
口口④口 |----|
口③口口 |--②-|
口口②口 |③-④-|
20
①口口口 |----|
口口口口 |----|
口口口口 |----|
口口口口 |①---|
21
口口口① |①---|
口②③口 |②-③-|
④口口④ |----|
口口口口 |④---|
22
口口口口 |①---|
口口口口 |----|
口口③口 |----|
①②口① |②-③-|
23
口口口口 |①---|
口①④口 |----|
口③口口 |--②-|
口口②口 |③-④-|
24
口口口口 |----|
口口口③ |----|
②口口口 |--①-|
口口口① |②-③-|
25
①口口③ |①---|
口②口口 |②-③-|
口④④口 |----|
口口口口 |④---|
26
口①①口 |①---|
口口口口 |----|
口口口口 |----|
口口口口 |----|
27
口口口口 |①---|
口口④口 |----|
①③口① |--②-|
口口②口 |③-④-|
28
口口口口 |----|
口口口③ |----|
口②口口 |--①-|
口口①口 |②-③-|
29
①③口口 |①---|
口口②口 |②-③-|
④口口口 |----|
口口口口 |④---|
30
口口口口 |①---|
口口口口 |----|
口③口① |----|
口口②口 |②-③-|
31
口①①口 |①---|
口④口口 |----|
口口③口 |--②-|
口②口口 |③-④-|
32
①口口① |①---|
口口④口 |----|
口③口口 |--②-|
口口②口 |③-④-|
33
口①①口 |①---|
口④口口 |②---|
②口口③ |③---|
口口口口 |④---|
34
口口口口 |①---|
口口①口 |--②-|
口口口口 |----|
口②口口 |----|
35
口口口口 |①---|
口口口口 |②---|
④③②① |③---|
口口口口 |④---|
36
口口口口 |①---|
口②①口 |②---|
口口口口 |----|
口口口口 |----|
37
①②③④ |①---|
口口口口 |②---|
口口口口 |③---|
口口口口 |④---|
38
口口口口 |①---|
口①②口 |②---|
口口口口 |----|
口口口口 |----|
39
口口口口 |①---|
口口口口 |②---|
④③②① |③---|
口口口口 |④---|
40
口口口口 |①---|
口④③口 |②---|
口口口口 |③---|
口②①口 |④---|
41
口口口① |①---|
口口口口 |----|
口口口口 |----|
口口口口 |----|
42
①②口口 |①---|
口口③口 |②---|
口口口④ |③---|
口口口口 |④---|
43
口口口口 |①---|
口口口口 |----|
口口口口 |----|
口口①口 |----|
44
口口②① |①---|
口③口口 |②---|
④口口口 |③---|
口口口口 |④---|
45
口口口口 |①---|
口口口口 |----|
口②口口 |----|
口①口口 |②---|
46
口口口口 |①---|
口②口口 |----|
口口①口 |----|
口口口口 |②---|
47
②②①① |①-②-|
口口口口 |--③-|
④口口④ |④---|
⑤口③⑤ |⑤---|
48
口口口口 |①-②-|
②②①① |--③-|
④口口④ |④---|
⑤口③⑤ |⑤---|
49
③①①③ |①---|
④口口④ |②---|
⑤②②⑤ |③-④-|
口口口口 |⑤---|
50
口①①口 |①-②-|
⑤②②⑤ |③-④-|
⑦③③⑧ |⑤-⑥-|
口④④⑥ |⑦-⑧-|
51
③①口口 |①---|
③①②口 |②---|
口口②口 |③---|
口口④④ |④---|
52
④口口口 |①---|
口口口口 |----|
②口口③ |--②-|
①①口口 |③-④-|
53
口口①③ |①---|
口②①③ |②---|
口②口口 |③---|
④④口口 |④---|
54
口口口口 |①---|
口口口口 |----|
口口口口 |----|
口口①① |----|
55
口口口口 |①---|
口③口③ |②---|
②口②口 |③---|
口①口① |----|
56
口口口口 |①---|
③口③口 |②---|
口②口② |③---|
①口①口 |----|
57
①口口① |①---|
口③②口 |----|
口②③口 |②---|
口口口口 |③---|
58
口②①口 |①---|
口口口③ |②---|
③口口口 |③---|
④①②④ |④---|
59
口口①③ |①---|
口②①③ |②---|
口②口口 |③---|
④④口口 |④---|
60
口口口口 |①---|
口口口口 |----|
②口口③ |----|
口口①① |②-③-|
61
③①口口 |①---|
③①②口 |②---|
口口②口 |③---|
口口④④ |④---|
62
口③口口 |①---|
口口口口 |----|
②口口② |--②-|
①①口口 |--③-|
63
口口①口 |①---|
口②口口 |----|
口口③口 |--②-|
口④口口 |③-④-|
64
口口口口 |①---|
口口口④ |----|
③口口口 |--②-|
口口①② |③-④-|
65
①②③④ |①---|
口口口口 |②---|
口口口口 |③---|
口口口口 |④---|
66
口口口口 |①---|
⑥口①口 |②-③-|
口口口⑤ |--④-|
④②③口 |⑤-⑥-|
67
口口口① |①---|
口④口口 |----|
口口③口 |--②-|
口②口口 |③-④-|
68
口口①口 |①---|
口口④口 |----|
口③口口 |--②-|
口口②口 |③-④-|
69
①①③③ |①---|
口②口口 |②-③-|
口口④口 |--④-|
⑤⑤口口 |⑤---|
70
②口口② |----|
口口口口 |----|
口①①口 |①---|
口口口口 |②---|
71
口口口口 |①---|
口①②口 |----|
口口口口 |②---|
口口口口 |----|
72
口口口口 |①---|
③口口③ |②---|
②口口② |③---|
①口口① |----|
73
口①②口 |①---|
口③④口 |②---|
口口口口 |③---|
口口口口 |④---|
74
①口口口 |①---|
口口口② |②---|
③口口口 |③---|
口口口④ |④---|
75
口口口口 |①---|
口口口口 |----|
口口②口 |----|
口①口口 |②---|
76
②②①① |①---|
口口口口 |----|
口口口口 |----|
口口口口 |②---|
77
口口口口 |①---|
口口口口 |----|
口①口口 |----|
口口口口 |----|
78
口口口口 |----|
①口口① |----|
口②②口 |①---|
口口口口 |②---|
79
②②①① |①-②-|
口口口口 |--③-|
④口口④ |④---|
⑤口③⑤ |⑤---|
80
口口口口 |①-②-|
②②①① |--③-|
④口口④ |④---|
⑤口③⑤ |⑤---|
81
③①①③ |①---|
④口口④ |②---|
⑤②②⑤ |③-④-|
口口口口 |⑤---|
82
⑤①①⑤ |①-②-|
⑤②②⑤ |③-④-|
口③③口 |⑤---|
口④④口 |----|


不確定度: 0

最終更新:2014年01月08日 16:52