[E]
dj MAX STEROID

ADVANCED

Level: 8
BPM: 152
Notes: 715

1
口口口口 |----|
口口口口 |----|
口口口口 |----|
口口口口 |----|
2
口⑤口口 |①-②③|
②口⑥① |④--⑤|
口⑦⑧③ |-⑥⑦⑧|
④⑨口口 |⑨---|
3
①⑧⑧① |①--②|
口④⑤口 |--③-|
②⑥口② |④⑤⑥-|
③⑦⑦③ |⑦-⑧-|
4
①口口① |①--②|
②口口② |--③-|
③口口③
口口口口

⑧口口⑧
口口口口
口④⑤口 |④⑤⑥-|
⑦⑥口⑦ |⑦-⑧-|
5
口①①口 |①--②|
口②②口 |--③-|
口③③口
口口口口

口⑧⑧口
口口口口
④口口⑤ |④⑤⑥-|
⑥⑦⑦口 |⑦-⑧-|
6
①④⑤① |①--②|
②⑥⑦② |--③-|
③⑧⑨③ |-④⑤⑥|
口⑩口口 |⑦⑧⑨⑩|
7
口口口口 |①--②|
口口口口 |--③-|
②口口②
③口①③

口⑧⑧口
口④⑤口
口⑥口口 |④⑤⑥-|
口⑦⑦口 |⑦-⑧-|
8
①口口① |①--②|
②口口② |--③-|
③口口③
口口口口

⑧口口⑧
口口口口
口④⑤口 |④⑤⑥-|
⑦⑥口⑦ |⑦-⑧-|
9
口①①口 |①--②|
口②②口 |--③-|
口③③口
口口口口

口口口口
④⑧⑧⑤
⑥口口口 |④⑤⑥-|
口⑦⑦口 |⑦-⑧-|
10
口③②口 |①---|
③④④② |----|
②④④③ |②--③|
①②③① |--④-|
11
①口口① |①--②|
③口口③ |--③-|
口口口口
②口口②

⑧④⑤⑧
口⑥口口
口口口口 |④⑤⑥-|
口⑦⑦口 |⑦-⑧-|
12
⑧④⑤⑧ |①--②|
口⑥口口 |--③-|
③①①③ |④⑤⑥-|
②⑦⑦② |⑦-⑧-|
13
口口口口 |①--②|
①口口① |--③-|
②口口②
③口口③

口口口口
⑧④⑤⑧
口⑥口口 |④⑤⑥-|
口⑦⑦口 |-⑦-⑧|
14
①④⑤① |①--②|
口⑥⑦口 |--③-|
②⑧⑨② |-④⑤⑥|
③⑩口③ |⑦⑧⑨⑩|
15
口口口口 |①--②|
口口口口 |--③-|
②口口②
③口①③

⑧口口⑧
口④⑤口
口⑥口口 |④⑤⑥-|
口⑦⑦口 |⑦-⑧-|
16
⑧①①⑧ |①--②|
口⑦⑦口 |--③-|
②④⑤② |④⑤⑥-|
③⑥口③ |⑦-⑧-|
17
口①②口 |①-②-|
①⑦⑦② |③-④-|
⑤③④⑥ |--⑤-|
③⑤⑥④ |⑥-⑦-|
18
①①①① |--①-|
口口口口 |----|
口②③口 |-②③④|
口④⑤口 |⑤---|
19
①口口① |①---|
口①①口 |----|
口口口口
口口口口

口②口口
口口③口
口②口口 |②---|
④④③口 |③--④|
20
口④①① |-①-②|
口口③口 |----|
口④②② |③---|
口口③口 |④---|
21
口口②口 |①---|
①③口口 |----|
口口②口 |②---|
①③④④ |③--④|
22
①①口口 |-①-②|
口口③③ |----|
②②口口 |③-④-|
④口⑤⑤ |--⑤-|
23
①②口① |①---|
口口③口 |----|
口②口口 |②---|
④④③口 |③--④|
24
口④①① |-①-②|
口口③口 |----|
口④②② |③---|
口口③口 |④---|
25
口口②口 |①---|
①③④④ |----|
口口②口 |②---|
①③口口 |③--④|
26
②口口② |-①--|
口⑤④口 |----|
③④⑤③ |②-③-|
口口①① |④-⑤-|
27
②①①② |-①-②|
口口口口 |---③|
⑥口⑤口 |④⑤--|
口④③口 |---⑥|
28
④⑧⑨⑤ |①--②|
③⑥⑦② |③-④⑤|
口口口① |-⑥⑦⑧|
口口口口 |⑨---|
29
口口口口 |-①-②|
⑦口口⑧ |---③|
⑥①①⑤ |④-⑤⑥|
③②②④ |--⑦⑧|
30
口⑥⑤④ |①-②-③-|
口①①口 |----|
口②②口 |④--⑤|
口③③口 |--⑥-|
31
②口口② |-①-②|
口①①口 |---③|
⑥口⑤口 |④⑤--|
口④③口 |---⑥|
32
④⑧⑨⑤ |①--②|
③⑥⑦② |③-④⑤|
口口口① |-⑥⑦⑧|
口口口口 |⑨---|
33
口口口口 |-①-②|
⑦口口⑧ |---③|
⑥①①⑤ |④-⑤⑥|
③②②④ |--⑦⑧|
34
口①①口 |①---|
口口口口 |----|
口口口口 |----|
口口口口 |----|
35
③④⑤③ |①---|
口口口口 |--②-|
口②②口 |③---|
口①①口 |④⑤--|
36
⑤口口⑤ |①-②③|
口③②口 |--④-|
①口口④ |⑤---|
口口口口 |----|
37
③口口③ |①---|
④口口⑤ |--②-|
口②②口 |③---|
口①①口 |④⑤--|
38
⑤②①⑤ |①②-③|
口③③口 |--④-|
口④④口 |⑤--⑥|
口⑥⑥口 |----|
39
口⑥⑤④ |①--②|
③口口① |--③-|
②口口② |--④-|
①口口③ |⑤-⑥-|
40
口口口口 |①--②|
④③①⑥ |--③-|
⑤②②⑤ |④--⑤|
⑥①③④ |--⑥-|
41
③②①口 |①-②-|
④口口口 |③-④-|
口⑤⑤④ |----|
口①②③ |--⑤-|
42
①③②① |①---|
口口口口 |----|
口口口口 |②---|
②口口③ |③---|
43
口口口口 |①---|
③口④② |----|
②④口③ |--②-|
口①①口 |③-④-|
44
口口口口 |①---|
③①⑤④ |--②-|
④⑤①③ |③--④|
②口口② |--⑤-|
45
口①②③ |①-②-|
口口口④ |③-④-|
④口口口
③②①口

口⑤⑤口
口口口口
口口口口 |----|
口口口口 |--⑤-|
46
①口④① |①---|
口③口口 |②---|
②口④② |③-④-|
口③口口 |----|
47
口⑥⑤④ |①--②|
③口口① |--③-|
②口口② |--④-|
①口口③ |⑤-⑥-|
48
口口口口 |①--②|
③口①⑤ |----|
④②②④ |③--④|
⑤①口③ |--⑤-|
49
③②①口 |①-②-|
④⑤⑤口 |③-④-|
口口口④ |----|
口①②③ |--⑤-|
50
①③口① |①---|
口口④口 |②---|
②③口② |③-④-|
口口④口 |----|
51
③口口② |①--②|
⑤①⑥④ |--③-|
④⑥①⑤ |--④-|
②口口③ |⑤-⑥-|
52
口口②口 |①-②-|
④①⑥⑤ |--③-|
⑤⑥①④ |④--⑤|
③②口③ |--⑥-|
53
口①②③ |①-②-|
口口口④ |③-④-|
④口口口
③②①口

口口口口
口口口口
口口口口 |----|
口⑤⑤口 |--⑤-|
54
①④口① |①-②-③-|
②口④② |----|
③④口③ |----|
口口④口 |④---|
55
③口②③ |①②-③|
口①口口 |----|
口口口口
口口口口

口⑥⑦口
⑤口口⑤
④口口④ |-④-⑤|
口口口口 |-⑥⑦-|
56
口⑥⑦口 |①②-③|
⑤口口⑤ |----|
④①②④ |-④-⑤|
口③③口 |-⑥⑦-|
57
口口口口 |①②-③|
口①②口 |---④|
④③③④
口口口口

口口口口
口⑦⑧口
口口口口 |-⑤-⑥|
⑤⑥⑥⑤ |-⑦⑧-|
58
⑥④⑤口 |①②-③|
口口口口 |-④⑤⑥|
③①②③
口口口口

口口口口
⑧口⑨⑧
⑩⑨口口 |⑦-⑧-|
口⑦⑦⑩ |⑨-⑩-|
59
③口②③ |①②-③|
口①口口 |----|
口口口口
口口口口

口⑥⑦口
⑤口口⑤
④口口④ |-④-⑤|
口口口口 |-⑥⑦-|
60
口⑥⑦口 |①②-③|
⑤口口⑤ |----|
④①②④ |-④-⑤|
口③③口 |-⑥⑦-|
61
口口口口 |①②-③|
口①②口 |---④|
④③③④
口口口口

口口口口
口⑦⑧口
口口口口 |-⑤-⑥|
⑤⑥⑥⑤ |-⑦⑧-|
62
口④⑤口 |①②-③|
口口口口 |-④⑤⑥|
③①②③
口⑥口口

口口口口
⑧口口⑧
口⑩⑩口 |⑦⑧-⑨|
⑨口⑦⑨ |--⑩-|
63
口口口口 |①---|
口②口口 |--②-|
①口口①
口口口口

口口口③
口口口④
口口口⑤ |③---|
口口口口 |④-⑤-|
64
口口口口 |--①-|
口⑥⑥口 |②③④-|
①⑦⑦口 |⑤-⑥-|
⑤②③④ |--⑦-|
65
②口口③ |----|
口①口口 |--①-|
口口口口 |②---|
口④口口 |③-④-|
66
口⑤⑤口 |--①-|
口⑥⑥口 |②③④-|
④③②口 |⑤-⑥-|
⑨⑧⑦① |⑦⑧⑨-|
67
口口口口 |①---|
口②口① |--②-|
口口口口
口口口口

③口口口
口口口④
口口口⑤ |③---|
口口口口 |④-⑤-|
68
口口口口 |--①-|
口⑥⑥口 |②③④-|
①⑦⑦口 |⑤-⑥-|
⑤②③④ |--⑦-|
69
②口口③ |----|
口①口口 |--①-|
口口口口 |②---|
口④口口 |③-④-|
70
口⑤⑤口 |--①-|
口⑥⑥口 |②③④-|
④③②口 |⑤-⑥-|
⑨⑧⑦① |⑦⑧⑨-|
71
口口口⑤ |①---|
口口口② |②---|
③口口① |③④--|
口⑥口④ |⑤--⑥|
72
口口口⑥ |--①-|
口口口② |②--③|
口口③口 |④-⑤-|
④口①⑤ |⑥---|
73
口口口口 |①---|
口口口② |②---|
口口口口
口①口口

口口口⑤
口口口口
口口口口 |③④--|
③⑥口④ |⑤--⑥|
74
口口⑧⑧ |-①②-|
口口口① |③④--|
口口③④ |⑤⑥-⑦|
⑤⑦②⑥ |-⑧--|
75
口口口口 |----|
口口口口 |----|
口口口口 |----|
口口口口 |----|
76
口口口口 |①---|
口①①口 |----|
口①①口 |----|
口口口口 |----|


不确定度: 0

最終更新:2012年11月08日 18:09