Second Heaven
Ryu☆

EXTREME

Level: 9
BPM: 149
Notes: 772

1
口口口口 |----|
口口口口 |----|
口口口口 |----|
口口口口 |----|
2
口①①口 |①-②-|
②口口② |----|
②口口② |----|
口①①口 |----|
3
④口⑧② |①-②-|
口口⑤⑧ |③-④-|
⑦⑨⑥⑩ |⑤-⑥⑦|
③口口① |⑧-⑨⑩|
4
④①口② |①-②-|
①⑦⑧口 |③-④-|
口口⑥口 |⑤-⑥⑦|
③⑨⑤口 |⑧-⑨-|
5
④口⑧② |①-②-|
口口⑤⑧ |③-④-|
⑦⑨⑥⑩ |⑤-⑥⑦|
③口口① |⑧-⑨⑩|
6
④①口② |①-②-|
①⑦⑧口 |③-④-|
口口⑥口 |⑤-⑥⑦|
③⑨⑤口 |⑧-⑨-|
7
③①①③ |①-②-|
口⑤⑦口 |--③-|
口⑥④口 |--④⑤|
②口口② |--⑥⑦|
8
③①①③ |①-②-|
口⑤口口 |--③-|
口⑥④⑥ |--④⑤|
②口口② |--⑥-|
9
②③②③ |①-②-|
口⑥⑧口 |--③-|
口⑦⑤口 |④-⑤⑥|
④①④① |--⑦⑧|
10
②③②③ |①-②-|
口口口口 |--③-|
口口口口
口①口①

⑥口⑥口
口⑤口口
口口④口 |--④⑤|
口口口口 |--⑥-|
11
口口口口 |①---|
口口口口 |----|
①口口① |----|
口①①口 |----|
12
口口口口 |----|
口口口口 |----|
口口口口 |----|
口口口口 |----|
13
②③④口 |①-②-|
⑧口口口 |③-④-|
⑦①⑤口 |⑤-⑥-|
⑥口口口 |⑦-⑧-|
14
口口口⑤ |①-②-|
⑧⑦①口 |③-④-|
口口⑥⑤ |⑤-⑥-|
⑦④③② |⑦-⑧-|
15
②③④口 |①-②-|
⑧口口口 |③-④-|
⑦①⑤口 |⑤-⑥-|
⑥口口口 |⑦-⑧-|
16
口口口口 |①-②-|
⑧⑤①② |③-④-|
⑦口口③ |⑤-⑥-|
⑥⑤①④ |⑦-⑧-|
17
②口④口 |①-②-|
⑧⑤①⑦ |③-④-|
口①⑤⑦ |⑤-⑥-|
⑥③③口 |⑦-⑧-|
18
口③③⑤ |①-②-|
⑧⑦①口 |③-④-|
口①⑥⑤ |⑤-⑥-|
⑦④口② |⑦-⑧-|
19
②口④口 |①-②-|
⑧⑤①⑦ |③-④-|
口①⑤⑦ |⑤-⑥-|
⑥③③口 |⑦-⑧-|
20
⑥口②③ |①-②-|
⑦⑤①口 |③-④-|
口口口口 |⑤-⑥-|
⑧⑤①④ |⑦-⑧-|
21
口④口① |①-②-|
口③⑦口 |③-④-|
口②⑥口 |--⑤-|
口口⑤口 |⑥-⑦-|
22
口③口④ |--①-|
⑤口口口 |②-③-|
口②口⑥ |④-⑤-|
⑦①口口 |⑥-⑦-|
23
口口③口 |--①-|
口⑥②口 |②-③-|
口⑤①口 |--④-|
口④口口 |⑤-⑥-|
24
⑧口口① |①-②-|
②口口⑦ |③-④-|
⑥口口③ |⑤-⑥-|
④口口⑤ |⑦-⑧-|
25
口①①口 |①-②-|
④①①⑦ |③-④-|
⑥①①③ |--⑤-|
②①①⑤ |⑥-⑦-|
26
⑥①①⑤ |①-②-|
④①①⑦ |③-④-|
⑧①口③ |⑤-⑥-|
②①①口 |⑦-⑧-|
27
口①①口 |①-②-|
口①①口 |③-④-|
口④口口
②①①③

⑤口口⑤
⑤⑦⑧⑤
口口⑥⑤ |⑤-⑥-|
口口口口 |⑦-⑧-|
28
⑦④③③ |①-②-|
口口⑥③ |③-④-|
②⑤⑤口 |⑤-⑥-|
①①①① |⑦---|
29
口口口口 |①---|
①口口① |----|
①口口① |----|
①口口① |----|
30
口⑥⑦口 |①-②③|
口口口⑤ |④⑤⑥⑦|
①②口口
④口③口

⑧口口口
⑨⑫口口
⑩口⑪口 |⑧-⑨-|
口口口口 |⑩-⑪⑫|
31
口②口① |①-②③|
口口③④ |-④⑤⑥|
口⑤口口
口口⑥口

⑧口⑨⑨
⑧口口口
口口口⑩ |⑦-⑧-|
⑦⑦口⑩ |⑨-⑩-|
32
口⑥⑦口 |①-②③|
口口口⑤ |④⑤⑥⑦|
①②口口
④口③口

⑧口口口
⑨⑫口口
⑩口⑪口 |⑧-⑨-|
口口口口 |⑩-⑪⑫|
33
③③②⑤ |①-②-|
⑥⑦口② |③-④-|
口口口① |⑤---|
④④①⑤ |⑥-⑦-|
34
口⑥⑦口 |①-②③|
口口口⑤ |④⑤⑥⑦|
①②口口
④口③口

⑧口口口
⑨⑫口口
⑩口⑪口 |⑧-⑨-|
口口口口 |⑩-⑪⑫|
35
口②口① |①-②③|
口口③④ |-④⑤⑥|
口⑤口口
口口⑥口

⑧口⑨⑨
⑧口口口
口口口⑩ |⑦-⑧-|
⑦⑦口⑩ |⑨-⑩-|
36
口⑥⑦口 |①-②③|
口口口⑤ |④⑤⑥⑦|
①②口口
④口③口

⑧口口口
⑨⑫口口
⑩口⑪口 |⑧-⑨-|
口口口口 |⑩-⑪⑫|
37
③③②口 |①-②-|
口口口② |③-④-|
口口口①
④④①口

口口口⑤
口口口口
⑥⑦口口 |⑤-⑥-|
口口⑧⑤ |⑦-⑧-|
38
②③④口 |①-②-|
③④口① |③-④-|
⑤口⑧⑦ |⑤-⑥-|
口⑧⑦⑥ |⑦-⑧-|
39
②③④⑥ |①-②-|
③④⑥① |③-④-|
⑦⑤⑧口 |⑤-⑥-|
⑤⑦口⑧ |⑦-⑧-|
40
②③④口 |①-②-|
③④口① |③-④-|
⑤口⑧⑦ |⑤-⑥-|
口⑧⑦⑥ |⑦-⑧-|
41
④②③① |①-②-|
②④①③ |③-④-|
口口口口
口口口口

口口口口
口口⑧口
⑤⑦口⑤ |⑤-⑥-|
口口⑥口 |⑦-⑧-|
42
②③④口 |①-②-|
③④口① |③-④-|
⑤口⑧⑦ |⑤-⑥-|
口⑧⑦⑥ |⑦-⑧-|
43
②③④⑥ |①-②-|
③④⑥① |③-④-|
⑦⑤⑧口 |⑤-⑥-|
⑤⑦口⑧ |⑦-⑧-|
44
②③④口 |①-②-|
③④口① |③-④-|
⑤口⑧⑦ |⑤-⑥-|
口⑧⑦⑥ |⑦-⑧-|
45
④②③① |①-②-|
②④①③ |③-④-|
⑤口口⑤ |⑤---|
口⑦⑥口 |⑥-⑦-|
46
④口⑧② |①-②-|
口口⑤⑧ |③-④-|
⑦⑨⑥⑩ |⑤-⑥⑦|
③口口① |⑧-⑨⑩|
47
④①口② |①-②-|
①⑦⑧口 |③-④-|
口口⑥口 |⑤-⑥⑦|
③⑨⑤口 |⑧-⑨-|
48
④口⑧② |①-②-|
口口⑤⑧ |③-④-|
⑦⑨⑥⑩ |⑤-⑥⑦|
③口口① |⑧-⑨⑩|
49
④①口② |①-②-|
①⑦⑧口 |③-④-|
口口⑥口 |⑤-⑥⑦|
③⑨⑤口 |⑧-⑨-|
50
③①①③ |①-②-|
口⑤⑦口 |--③-|
口⑥④口 |--④⑤|
②口口② |--⑥⑦|
51
③①①③ |①-②-|
口⑤口口 |--③-|
口⑥④⑥ |--④⑤|
②口口② |--⑥-|
52
②③②③ |①-②-|
口⑥⑧口 |--③-|
口⑦⑤口 |④-⑤⑥|
④①④① |--⑦⑧|
53
②口②口 |①-②-|
③⑥口④ |③-④-|
口口⑤口 |--⑤⑥|
口①口① |----|
54
口⑥⑦口 |①-②③|
口口口⑤ |④⑤⑥⑦|
①②口口
④口③口

⑧口口口
⑨⑫口口
⑩口⑪口 |⑧-⑨-|
口口口口 |⑩-⑪⑫|
55
口②口① |①-②③|
口口③④ |-④⑤⑥|
口⑤口口
口口⑥口

⑧口⑨⑨
⑧口口口
口口口⑩ |⑦-⑧-|
⑦⑦口⑩ |⑨-⑩-|
56
口⑥⑦口 |①-②③|
口口口⑤ |④⑤⑥⑦|
①②口口
④口③口

⑧口口口
⑨⑫口口
⑩口⑪口 |⑧-⑨-|
口口口口 |⑩-⑪⑫|
57
③③②⑤ |①-②-|
口口口② |③-④-|
口口口① |⑤---|
④④①⑤ |----|
58
口口口⑥ |①-②③|
口⑤口口 |-④⑤⑥|
①②④口
口口③口

⑦口口口
⑧口口口
⑨口口口 |⑦-⑧-|
⑪口口⑩ |⑨-⑩⑪|
59
⑦口口⑥ |①-②③|
⑧⑤口口 |-④⑤⑥|
⑨②④① |⑦-⑧-|
⑪口③⑩ |⑨-⑩⑪|
60
⑧②⑤⑪ |①-②③|
⑥⑫⑨③ |④-⑤⑥|
口口口① |⑦-⑧⑨|
⑩④⑦口 |⑩-⑪⑫|
61
④⑥⑤口 |①-②-|
口⑧⑦③ |③-④-|
②⑩⑨口 |⑤⑥⑦⑧|
口⑫⑪① |⑨⑩⑪⑫|
62
口口口口 |①---|
①口口① |----|
①口口① |----|
①口口① |----|
63
口②①口 |①②③④|
口④③口 |⑤⑥⑦⑧|
口⑥⑤口 |----|
口⑧⑦口 |----|
64
口⑥⑦口 |①-②③|
口②口⑤ |④⑤⑥⑦|
口①①口
④口③口

⑧口口口
⑨口口口
⑩⑫口口 |⑧-⑨-|
口口⑪口 |⑩-⑪⑫|
65
口⑤口① |①-②③|
口②⑥④ |-④⑤⑥|
口口③口
口口口口

⑧口⑨⑨
⑧口口口
口口口⑩ |⑦-⑧-|
⑦⑦口⑩ |⑨-⑩-|
66
口⑥⑦口 |①-②③|
口②口⑤ |④⑤⑥⑦|
口①①口
④口③口

⑧口口口
⑨⑫口口
⑩口⑪口 |⑧-⑨-|
口口口口 |⑩-⑪⑫|
67
③③②口 |①-②-|
口口口② |③-④-|
口口口①
④④①口

口口口⑤
口口⑦口
口⑥口⑧ |⑤-⑥-|
口口口⑤ |⑦-⑧-|
68
①①⑥口 |①-②③|
口②⑦③ |④-⑤-⑥⑦⑧⑨|
口口⑧口
口④⑨⑤

口口口⑩
⑪口口⑭
⑬口口⑫ |⑩-⑪-|
口口口口 |⑫-⑬⑭|
69
①④⑧口 |①-②③|
口⑤⑨口 |④⑤⑥⑦⑧⑨⑩⑪|
口⑥⑩口
③⑦⑪②

口口口⑫
⑬口口口
口口口⑭ |⑫-⑬-|
⑮口口口 |⑭-⑮-|
70
①④⑧口 |①-②③|
口⑤⑨口 |④⑤⑥⑦⑧⑨⑩⑪|
③⑥⑩口
口⑦⑪②

⑮口口⑫
⑯口口⑭
⑰口口⑬ |⑫-⑬-|
⑱口口口 |⑭---⑮⑯⑰⑱|
71
口②③口 |①-②-|
口⑤⑤口 |③-④-|
口⑤⑤口 |⑤---|
口①④口 |----|
72
口口口① |①---|
口口口口 |----|
口口口口 |----|
口口口口 |----|

不確定度: 0

最終更新:2014年08月02日 00:35