恋する☆宇宙戦争っ!!
Prim

EXTREME

Level: 10
BPM: 200
Notes: 966

1
口口口口 |----|
口口口口 |----|
口口口口 |----|
口口口口 |----|
2
⑬⑭⑮⑯ |①②③④|
⑨⑩⑪⑫ |⑤⑥⑦⑧|
⑤⑥⑦⑧ |⑨⑩⑪⑫|
①②③④ |⑬⑭⑮⑯|
3
口口⑦口 |①-②-|
⑤⑥⑦⑧ |③-④-|
口口③口 |⑤-⑥-|
①②③④ |⑦-⑧-|
4
⑤⑥⑦⑧ |①-②-|
口口⑦口 |③-④-|
①②③④ |⑤-⑥-|
口口③口 |⑦-⑧-|
5
口口口口 |①---|
口⑨⑧口 |----|
⑦⑤④⑥ |②③④⑤|
①③②口 |⑥⑦⑧⑨|
6
口②①③ |①---|
②口③① |②---|
口口口口 |----|
口口口口 |③---|
7
口②①口 |①-②-|
⑤口口⑤ |--③-|
②④④① |--④-|
口③③口 |--⑤-|
8
④②①④ |--①-|
口③③口 |②---|
口口口口 |③---|
②口口① |④---|
9
口②②口 |①---|
口口口口 |--②-|
②①①② |----|
口①①口 |----|
10
口口口口 |①-②-|
③①②③ |--③-|
口③③口 |----|
②口口① |----|
11
④③②① |①-②-|
⑧⑦⑥⑤ |③-④-|
③口口口 |⑤-⑥-|
⑦口口口 |⑦-⑧-|
12
③口口口 |①-②-|
⑦口口口 |③-④-|
④③②① |⑤-⑥-|
⑧⑦⑥⑤ |⑦-⑧-|
13
口③口口 |①-②-|
⑧⑦⑥⑤ |③-④-|
④③②① |⑤-⑥-|
口⑦口口 |⑦-⑧-|
14
⑥③⑤⑥ |①-②-|
口⑥⑥⑤ |③-④-|
④③口口 |⑤---|
口口②① |⑥---|
15
⑥③⑤口 |①-②-|
③⑥口⑦ |③-④-|
口口口口 |--⑤-|
①口④② |⑥-⑦-|
16
口②口口 |--①-|
②④④口 |②---|
口口②① |③---|
口③口口 |④---|
17
③口⑥口 |①-②-|
②口⑤① |--③-|
③⑤口④ |④---|
口⑥口① |⑤-⑥-|
18
④①④② |--①-|
口③口③ |②---|
③口③口 |③---|
②④①④ |④---|
19
口⑦⑥⑤ |①-②-|
口口口④ |③-④-|
口①⑧③ |⑤-⑥-|
口口②口 |⑦-⑧-|
20
⑤口口⑥ |①-②-|
①口②④ |③-④-|
口③口口 |----|
①口②④ |⑤-⑥-|
21
⑦口口口 |--①-|
⑥①口口 |②-③-|
⑤口②口 |④-⑤-|
④③口口 |⑥-⑦-|
22
口①②口 |①-②-|
⑦⑤口④ |③-④-|
口③⑥口 |--⑤-|
⑦⑤口④ |⑥-⑦-|
23
口①口口 |--①-|
口口②口 |②-③-|
③口口⑥ |④-⑤-|
口④⑤口 |⑥---|
24
①口③④ |①-②-|
①②口④ |③-④-|
口口口口 |----|
⑤口口口 |⑤---|
25
⑦口口口 |①-②-|
口⑦口口 |③-④-|
④③⑥⑤ |⑤-⑥-|
口口②① |⑦---|
26
④②①③ |①---|
②④③① |②---|
口③④口 |③---|
③①②④ |④---|
27
口⑤④口 |①-②-|
口⑥⑧③ |③-④-|
①⑦口② |⑤-⑥-|
口③⑤⑦ |⑦-⑧-|
28
口口④② |①-②-|
口⑦⑥⑤ |③-④-|
口口③① |--⑤-|
①③口⑥ |⑥-⑦-|
29
⑤④③② |①-②-|
口⑧⑦⑥ |③-④-|
口口口口 |⑤-⑥-|
①③⑤⑦ |⑦-⑧-|
30
口口④② |①-②-|
①⑦⑥⑤ |③-④-|
口口③① |--⑤-|
①③口⑥ |⑥-⑦-|
31
口⑦口口 |①-②-|
口口⑥⑤ |③-④-|
口④③② |⑤-⑥-|
①③⑤⑦ |⑦---|
32
口口④② |①-②-|
⑤⑤口口 |③-④-|
⑤⑤③① |⑤---|
①③口口 |----|
33
④③②① |①---|
口④③② |②---|
口口④③ |③---|
口口口④ |④---|
34
口口口口 |①---|
①口口口 |②---|
②①口口
口②①口

口口口口
口口口口
口⑤④口 |③---|
③口口口 |④-⑤-|
35
口口②③ |①---|
口④①③ |--②-|
③口④口 |③---|
③②口口 |④---|
36
③③口口 |①---|
②④①口 |--②-|
口①④② |③---|
口口③③ |④---|
37
口口②③ |①---|
口④①③ |--②-|
③①④口 |③---|
③②口口 |④---|
38
③③④口 |①---|
②口①④ |--②-|
④①口② |③---|
口④③③ |④---|
39
口口口④ |①---|
⑤③①口 |②-③-|
口①②⑤ |④---|
④口口口 |⑤---|
40
④⑤口口 |①---|
口口③① |②-③-|
①②口口 |④---|
口口⑤④ |⑤---|
41
④④④④ |①---|
③③③口 |②---|
口②②② |③---|
①①口口 |④---|
42
口口口口 |①-②-|
④口口① |③-④-|
口⑤⑤口 |----|
②口口③ |⑤---|
43
②口③① |①-②-|
④口①③ |③-④-|
⑥口⑦⑤ |⑤-⑥-|
⑧口⑤⑦ |⑦-⑧-|
44
⑤②⑦① |①-②-|
⑤⑥⑦③ |③-④-|
口⑥口口 |--⑤-|
口④口口 |⑥-⑦-|
45
口口口② |--①-|
口口口口 |--②-|
③口口④ |--③-|
口口口① |--④-|
46
口②④口 |①-②-|
②④②④ |③-④-|
口①③口
①③①③

口口口口
口口口口
⑤⑦口⑥ |--⑤-|
口口口口 |⑥-⑦-|
47
②口③① |①-②-|
④口①③ |③-④-|
⑥口⑤口 |⑤-⑥-|
⑧口口⑦ |⑦-⑧-|
48
②口③① |①-②-|
④口①③ |③-④-|
口⑤⑤口 |----|
口口口口 |⑤---|
49
②口口① |①-②-|
④口口③ |③-④-|
口口口口
口口口口

口口口⑧
口口⑦口
口⑥口口 |⑤-⑥-|
⑤口口口 |⑦-⑧-|
50
④②②④ |①---|
④③口④ |②---|
②③①② |③---|
③①③① |④---|
51
口⑧口⑦ |①-②-|
⑥口⑤口 |③-④-|
④口①③ |⑤-⑥-|
口②口① |⑦-⑧-|
52
⑤口⑦口 |①-②-|
⑤⑥⑦口 |③-④-|
口⑥口口 |--⑤-|
④③②① |⑥-⑦-|
53
口口口② |--①-|
口口口口 |--②-|
③口口④ |--③-|
口口口① |--④-|
54
口②④口 |①-②-|
②④②④ |③-④-|
口①③口
①③①③

口口口口
口口口口
⑤⑦口⑥ |--⑤-|
口口口口 |⑥-⑦-|
55
②口口① |①-②-|
④口①③ |③-④-|
⑥口⑤口 |⑤-⑥-|
⑧口口⑦ |⑦-⑧-|
56
②口口① |①-②-|
④口①③ |③-④-|
口⑤⑤口 |----|
口口口口 |⑤---|
57
口口②③ |①---|
口口④② |②---|
口⑤口口 |③-④-|
⑥①①口 |⑤-⑥-|
58
口口口口 |①-②-|
口⑥⑥口 |③-④-|
口口②① |⑤---|
口⑤④③ |⑥---|
59
④③②① |①-②-|
⑧⑦⑥⑤ |③-④-|
⑤口口口 |⑤-⑥-|
①口口口 |⑦-⑧-|
60
口口口口 |①-②-|
口口口口 |③-④-|
④③②①
①口口口

⑤口口口
口口口口
口口口口 |⑤-⑥-|
⑧⑦⑥⑤ |⑦-⑧-|
61
口口①口 |①---|
口②口① |--②-|
③口②口 |----|
口③口口 |③---|
62
③②③② |①---|
口③①口 |--②-|
③②③② |----|
口口口口 |③---|
63
口口口口 |①---|
口口口④ |②---|
口口口③ |③---|
口①①② |④---|
64
口口口口 |①---|
④口口口 |②---|
③①①口 |③---|
②口口口 |④---|
65
①②②口 |①---|
③口③口 |--②-|
口③口③ |----|
口②②① |③---|
66
②口②口 |--①-|
③①③① |----|
①③①③ |②---|
口②口② |③---|
67
口⑧口⑦ |①-②-|
口⑥口⑤ |③-④-|
④口③口 |⑤-⑥-|
②口①口 |⑦-⑧-|
68
⑥口④口 |--①-|
口⑤②口 |②-③-|
口③口① |--④-|
口口口口 |⑤-⑥-|
69
⑧口⑦口 |①-②-|
⑥口⑤口 |③-④-|
口④口③ |⑤-⑥-|
口②口① |⑦-⑧-|
70
口⑤口口 |--①-|
④③⑥① |②-③-|
口口②口 |--④-|
口口口口 |⑤-⑥-|
71
口⑧口⑦ |①-②-|
口⑥口⑤ |③-④-|
④口③口 |⑤-⑥-|
②口①口 |⑦-⑧-|
72
口口口口 |--①-|
①⑥③口 |②-③-|
口②⑤口 |--④-|
口④口口 |⑤-⑥-|
73
④④①① |①---|
④口口① |②---|
②②口③ |③---|
②口③③ |④---|
74
④④①① |①---|
口④口① |②---|
②②③③ |③---|
口②口③ |④---|
75
⑦⑧口① |①-②-|
⑤⑥①口 |③-④-|
③④口口 |⑤-⑥-|
①②口口 |⑦-⑧-|
76
⑦⑧口① |①-②-|
⑤⑥①口 |③-④-|
③④口口 |⑤-⑥-|
①②口口 |⑦-⑧-|
77
⑦⑧①⑤ |①-②-|
⑤⑥⑤① |③-④-|
③④口口 |⑤-⑥-|
①②口口 |⑦-⑧-|
78
⑬⑭⑮⑯ |①②③④|
⑨⑩⑪⑫ |⑤⑥⑦⑧|
⑤⑥⑦⑧ |⑨⑩⑪⑫|
①②③④ |⑬⑭⑮⑯|
79
⑦口⑧口 |①-②-|
⑤⑦⑧⑥ |③-④-|
③口⑥④ |⑤-⑥-|
①①④② |⑦-⑧-|
80
口①口口 |①-②-|
口口口口 |③-④-|
口口口口
口④③②

口⑦口⑤
口⑦⑥⑤
口口⑥口 |--⑤-|
口口口口 |⑥-⑦-|
81
②口口口 |--①-|
口口口口 |--②-|
④口口③ |--③-|
①口口口 |--④-|
82
口④②口 |①-②-|
④②④② |③-④-|
口③①口
③①③①

口口口口
口口口口
⑥口⑦⑤ |--⑤-|
口口口口 |⑥-⑦-|
83
①③口② |①-②-|
③①口④ |③-④-|
⑦⑤口⑥ |⑤-⑥-|
⑤⑦口⑧ |⑦-⑧-|
84
①口口② |①-②-|
③①②④ |③-④-|
口口口口 |----|
口⑤⑤口 |⑤---|
85
口①口② |①-②-|
口③口④ |③-④-|
⑦口⑧口 |⑤-⑥-|
⑤口⑥口 |⑦-⑧-|
86
①④口口 |①---|
④③④口 |②---|
④①④口 |③---|
③②③② |④---|
87
②口①① |①-②-|
口④口③ |③-④-|
⑥⑥⑦⑤ |⑤-⑥-|
⑧口口⑦ |⑦-⑧-|
88
②⑦①⑤ |①-②-|
口⑦⑥⑤ |③-④-|
口口⑥口 |--⑤-|
口④③口 |⑥-⑦-|
89
②口口口 |--①-|
口口口口 |--②-|
④口口③ |--③-|
①口口口 |--④-|
90
⑧④②⑥ |①-②-|
④②④② |③-④-|
⑦③①⑤ |⑤-⑥-|
③①③① |⑦-⑧-|
91
口⑧⑦口 |①-②-|
⑥⑥口⑤ |③-④-|
口④③口 |⑤-⑥-|
②②口① |⑦-⑧-|
92
①口口② |①-②-|
口⑤③口 |③-④-|
口④⑤口 |----|
口口口口 |⑤---|
93
口②③④ |①---|
口口⑥⑤ |②---|
①口口② |③-④-|
①①口口 |⑤-⑥-|
94
口口口口 |①-②-|
⑥⑥口口 |③-④-|
③②①口 |⑤---|
④口⑤⑤ |⑥---|
95
④③②① |①-②-|
⑧⑦⑥⑤ |③-④-|
③口口① |⑤-⑥-|
⑦口口⑤ |⑦-⑧-|
96
③口口① |①-②-|
⑦口口⑤ |③-④-|
④③②① |⑤-⑥-|
⑧⑦⑥⑤ |⑦-⑧-|
97
③口口① |①-②-|
⑧⑦⑥⑤ |③-④-|
④③②① |⑤-⑥-|
⑦口口口 |⑦-⑧-|
98
③⑥口⑤ |①-②-|
⑥口⑤口 |③-④-|
④③口口 |⑤---|
口口②① |⑥---|
99
③⑥⑤口 |①-②-|
⑥③口⑦ |③-④-|
口口④① |--⑤-|
口口口② |⑥-⑦-|
100
②④口口 |--①-|
④②口口 |②---|
口口②① |③---|
口③③口 |④---|
101
②⑤⑥④ |①-②-|
口③①口 |--③-|
口②④口 |④---|
③⑤⑥① |⑤-⑥-|
102
①口口口 |--①-|
①口口口 |②---|
③口③② |③---|
④④④② |④---|
103
①口①口 |①---|
①①①口 |----|
口①口口 |----|
口口口口 |----|

不確定度: 0

最終更新:2014年08月02日 00:29