HYENA
Hommarju

EXTREME

Level: 10
BPM: 178
Notes: 863

1
口口口口 |----|
口口口口 |----|
口口口口 |----|
口口口口 |----|
2
口口口口 |①---|
①口口① |----|
①口口① |----|
口口口口 |----|
3
①口口① |----|
口口③口 |①---|
口②口口 |②③--|
④口口④ |④---|
4
口口口口 |①---|
①口口① |----|
①口口① |----|
口口口口 |----|
5
口口口口 |----|
口②①口 |①---|
口①②口 |②---|
口口口口 |----|
6
口口口口 |①---|
①口口① |----|
①口口① |----|
口口口口 |----|
7
①口口① |----|
口口③口 |①---|
口②口口 |②③--|
④口口④ |④---|
8
口口口口 |①---|
①口口① |----|
①口口① |----|
口口口口 |----|
9
口口口口 |----|
口②①口 |①---|
口①②口 |②---|
口口口口 |----|
10
口口口口 |①-②-|
①口口① |③-④⑤|
②④⑤③
口口口口

⑦口⑥口
⑨口⑧口
口口口口 |----|
口口口口 |⑥⑦⑧⑨|
11
口⑪⑩⑨ |①②③④|
口⑫⑫口 |⑤⑥⑦⑧|
⑧④⑦③ |⑨⑩⑪-|
⑥②⑤① |⑫---|
12
口口口口 |①-②-|
①口口① |③-④⑤|
④⑨⑧⑤ |----|
②⑦⑥③ |⑥⑦⑧⑨|
13
⑥②①⑤ |①②③④|
④⑧⑦③ |⑤⑥⑦⑧|
口⑫⑫口 |⑨⑩⑪-|
口⑪⑩⑨ |⑫---|
14
⑦口⑥③ |①-②-|
⑨④⑧口 |③-④⑤|
①口口① |----|
②口⑤口 |⑥⑦⑧⑨|
15
口⑪⑩⑨ |①②③④|
口⑫⑫口 |⑤⑥⑦⑧|
⑧④⑦③ |⑨⑩⑪-|
⑥②⑤① |⑫---|
16
④口口口 |①-②-|
①口口① |③-④⑤|
口⑨⑧⑤ |----|
②⑦⑥③ |⑥⑦⑧⑨|
17
⑥②①⑤ |①②③④|
④⑧⑦③ |⑤⑥⑦⑧|
口⑫⑫口 |⑨⑩⑪-|
口⑪⑩⑨ |⑫---|
18
口口口口 |①---|
①口口① |----|
①口口① |----|
口口口口 |----|
19
口口口口 |----|
口②①口 |①---|
口①②口 |②---|
口口口口 |----|
20
口④④口 |①-②-|
①口口② |----|
①口口② |--③-|
③口口③ |④---|
21
④⑤⑥口 |①-②-|
①⑦⑦② |--③-|
①口口② |④⑤⑥-|
口③③口 |⑦---|
22
口④④口 |①-②-|
②口口① |----|
②口口① |--③-|
③口口③ |④---|
23
口⑥⑤④ |①-②-|
②⑦⑦① |--③-|
②口口① |④⑤⑥-|
口③③口 |⑦---|
24
口④④口 |①-②-|
①口口② |----|
口①②口 |--③-|
③口口③ |④---|
25
④⑤⑥口 |①-②-|
①⑦⑦② |--③-|
③口口③ |④⑤⑥-|
口①②口 |⑦---|
26
④口口④ |①-②-|
②口口① |----|
口②①口 |--③-|
口③③口 |④---|
27
⑩②①⑩ |①②③④|
⑩④③⑩ |⑤⑥⑦⑧|
⑥口⑨⑤ |⑨-⑩-|
⑧口口⑦ |----|
28
⑮④⑤⑩ |①②③④|
⑪⑨③⑭ |⑤-⑥⑦|
⑦②⑧⑫ |⑧⑨⑩⑪|
口⑬①⑥ |⑫⑬⑭⑮|
29
口⑥⑤⑫ |①②③④|
口口③⑪ |⑤⑥⑦⑧|
⑧②⑨⑩ |⑨-⑩-|
④口①⑦ |⑪-⑫-|
30
口④⑤口 |①②③④|
口口③口 |⑤-⑥⑦|
口②口口
⑦口①⑥

⑬口口口
⑮⑪口⑩
⑨口⑧⑫ |⑧⑨⑩⑪|
口口⑭口 |⑫⑬⑭⑮|
31
口④⑤① |①②③④|
口口③口 |⑤⑥⑦⑧|
口②口口
⑥⑧口⑦

口口口⑫
口口口⑪
口口⑨⑩ |⑨-⑩-|
口口口口 |⑪-⑫-|
32
⑬④⑤⑭ |①②③④|
口⑨③⑫ |⑤-⑥⑦|
⑪②⑩⑧ |⑧⑨⑩⑪|
⑦⑮①⑥ |⑫⑬⑭⑮|
33
⑪④⑤口 |①②③④|
②⑧①⑭ |⑤⑥⑦⑧|
⑮⑥⑨⑫ |⑨⑩-⑪|
⑩⑬③⑦ |⑫⑬⑭⑮|
34
口④⑦③ |①②③④|
②⑥口口 |⑤⑥⑦⑧|
口⑧口口
口口①⑤

⑩口口口
⑯口⑨⑬
⑭口口⑪ |⑨⑩⑪⑫|
口⑫⑮口 |⑬⑭⑮⑯|
35
口②口① |①②③④|
口⑥⑦口 |⑤⑥⑦⑧|
口⑧⑤口
④口口③

口口⑨⑫
口口口⑪
口口口⑩ |⑨-⑩-|
口口口口 |⑪-⑫-|
36
口口口口 |①---|
口口口口 |----|
口口口口 |----|
①①①① |----|
37
口口口口 |----|
口②①口 |①---|
口①②口 |②---|
口口口口 |----|
38
⑬④⑤⑩ |①②③④|
⑨⑪③⑭ |⑤-⑥⑦|
⑮②⑧⑫ |⑧⑨⑩⑪|
口⑦①⑥ |⑫⑬⑭⑮|
39
⑫⑥⑤⑨ |①②③④|
口⑪①口 |⑤⑥⑦⑧|
口②⑩口 |⑨-⑩-|
④⑧③⑦ |⑪-⑫-|
40
口④⑤⑥ |①②③④|
⑦口③口 |⑤-⑥⑦|
口②口口
口口①口

⑬口口口
口⑪口⑩
⑨⑮⑧⑭ |⑧⑨⑩⑪|
口口口⑫ |⑫⑬⑭⑮|
41
口④口⑤ |①②③④|
⑥⑫③⑨ |⑤⑥⑦⑧|
口口⑦⑪ |⑨-⑩-|
⑧②①⑩ |⑪-⑫-|
42
⑦④⑤⑩ |①②③④|
⑮⑬③⑥ |⑤-⑥⑦|
⑨②⑧⑫ |⑧⑨⑩⑪|
口⑪①⑭ |⑫⑬⑭⑮|
43
⑥⑧③⑨ |①②③④|
⑮⑪⑤⑭ |⑤⑥⑦⑧|
⑬④⑦⑫ |⑨⑩-⑪|
②⑩①口 |⑫⑬⑭⑮|
44
④⑥①口 |①②③④|
口口③口 |⑤⑥⑦⑧|
口②口口
⑧口⑦⑤

口口⑮⑨
⑭⑩口口
口⑯⑪⑬ |⑨⑩⑪⑫|
口⑫口口 |⑬⑭⑮⑯|
45
②⑧口⑦ |①②③④|
口口①口 |⑤⑥⑦⑧|
④口口口
⑥口⑤③

⑫口口口
口口口口
口口⑨⑩ |⑨-⑩-|
口⑪口口 |⑪-⑫-|
46
⑤④①⑤ |①---|
④②口① |②-③-|
口口③口 |④---|
口口口口 |--⑤-|
47
口口口口 |--①-|
口口①口 |②---|
口②口口 |③---|
③口口③ |----|
48
口口①口 |①--②|
口②口口 |--③-|
④口③口 |④---|
⑤④口⑤ |⑤---|
49
①口口② |①---|
①口口② |②---|
口口口口 |③---|
口③③口 |----|
50
口④③口 |①---|
①口⑤② |②---|
①口口② |③-④-|
口口口口 |--⑤-|
51
口③口口 |①---|
口①口③ |②---|
③②②口 |③---|
口口③口 |----|
52
口②①口 |①---|
①口口② |----|
②口口① |②---|
口①②口 |----|
53
口②①口 |①---|
①口口② |----|
②口口① |②---|
口①②口 |----|
54
⑪⑫②① |①②③④|
⑦⑧⑭⑬ |⑤⑥⑦⑧|
⑮⑯⑥⑤ |⑨⑩⑪⑫|
③④⑩⑨ |⑬⑭⑮⑯|
55
⑪⑫②① |①②③④|
⑦⑧口⑬ |⑤⑥⑦⑧|
口口⑥⑤ |⑨⑩⑪⑫|
③④⑩⑨ |⑬---|
56
⑩⑭④⑯ |①②③④|
⑨⑬③⑮ |⑤⑥⑦⑧|
②⑥⑫⑧ |⑨⑩⑪⑫|
①⑤⑪⑦ |⑬⑭⑮⑯|
57
⑩口④口 |①②③④|
⑨⑬③口 |⑤⑥⑦⑧|
②⑥⑫⑧ |⑨⑩⑪⑫|
①⑤⑪⑦ |⑬---|
58
⑮⑯②① |①②③④|
⑪⑫⑥⑤ |⑤⑥⑦⑧|
⑦⑧⑩⑨ |⑨⑩⑪⑫|
③④⑭⑬ |⑬⑭⑮⑯|
59
口口②① |①②③④|
口口⑥⑤ |⑤⑥⑦⑧|
⑦⑧⑩⑨ |⑨⑩--|
③④口口 |----|
60
②⑩⑫④ |①②③④|
①⑨⑪③ |⑤⑥⑦⑧|
⑭⑥⑧⑯ |⑨⑩⑪⑫|
⑬⑤⑦⑮ |⑬⑭⑮⑯|
61
②⑩⑫④ |①②③④|
①⑨⑪③ |⑤⑥⑦⑧|
口⑥⑧口 |⑨⑩⑪⑫|
⑬⑤⑦口 |⑬---|
62
口口⑥④ |①---|
①③口① |-②③-|
①口②① |④-⑤-|
口口⑦⑤ |⑥-⑦-|
63
⑧①口口 |①-②-|
口④⑤口 |-③④-|
口⑥③口 |⑤-⑥-|
⑦②口口 |⑦-⑧-|
64
口口⑥④ |①---|
①③口① |-②③-|
①口②① |④-⑤-|
口口⑦⑤ |⑥-⑦-|
65
⑧①口口 |①-②-|
口④⑤口 |-③④-|
口⑥③口 |⑤-⑥-|
⑦②口口 |⑦-⑧-|
66
口口⑥④ |①---|
①③口① |-②③-|
①口②① |④-⑤-|
口口⑦⑤ |⑥-⑦-|
67
⑧①口口 |①-②-|
口④⑤口 |-③④-|
口⑥③口 |⑤-⑥-|
⑦②口口 |⑦-⑧-|
68
⑥口口④ |①---|
①③口① |-②③-|
①口②① |④-⑤-|
⑦口口⑤ |⑥-⑦-|
69
口⑥⑤⑨ |①②③④|
②⑩⑬口 |⑤⑥⑦⑧|
④⑫⑦① |⑨⑩⑪⑫|
口⑧③⑪ |⑬---|
70
口口口口 |①---|
①口口① |----|
①口口① |----|
口口口口 |----|
71
口口口口 |----|
口②①口 |①---|
口①②口 |②---|
口口口口 |----|
72
⑥③④⑤ |①-②-|
②口⑩① |③④⑤-|
②⑨口① |⑥-⑦-|
⑦口⑧口 |⑧⑨⑩-|
73
口⑤①口 |--①-|
口②口口 |--②③|
口⑤③① |④---|
口④口口 |⑤---|
74
口口口④ |①-②-|
口口⑨③ |③-④-|
口⑧⑤② |⑤⑥--|
①⑥⑦① |⑦⑧⑨-|
75
③①口口 |--①-|
口②④口 |--②-|
①④②口 |③---|
口口口③ |④---|
76
⑥③④⑤ |①-②-|
②口⑩① |③④⑤-|
②⑨口① |⑥-⑦-|
⑦口⑧口 |⑧⑨⑩-|
77
口口①⑤ |--①-|
口②口⑤ |--②③|
口口③① |④-⑤-|
口④口口 |----|
78
④口口口 |①-②-|
③⑥⑤⑦ |③-④-|
②口⑨⑧ |⑤⑥--|
①口口① |⑦-⑧⑨|
79
⑨口④③ |①②③④|
口⑩⑩口 |⑤⑥⑦⑧|
①②口口 |⑨-⑩-|
⑤⑥⑧⑦ |----|
80
⑤④③⑥ |①-②-|
①⑩口② |③④⑤-|
①口⑨② |⑥-⑦-|
口⑧口⑦ |⑧⑨⑩-|
81
口①⑤口 |--①-|
口口②口 |--②③|
①③⑤口 |④---|
口口④口 |⑤---|
82
④口口口 |①-②-|
③⑨口口 |③-④-|
②⑤⑧口 |⑤⑥--|
①⑦⑥① |⑦⑧⑨-|
83
口口①③ |--①-|
口口②口 |--②-|
口②口① |③-④-|
③④④口 |----|
84
⑤④③⑥ |①-②-|
①⑩口② |③④⑤-|
①口⑨② |⑥-⑦-|
口⑧口⑦ |⑧⑨⑩-|
85
⑤①口口 |--①-|
⑤口②口 |--②③|
①③口口 |④-⑤-|
口口④口 |----|
86
口⑥口⑤ |①②③④|
口②口口 |⑤⑥⑦⑧|
口口③⑦
④⑧口①

⑩口⑬口
口⑯⑨⑪
⑭⑫口口 |⑨⑩⑪⑫|
口口⑮口 |⑬⑭⑮⑯|
87
⑩⑥⑪③ |①②③④|
②口口⑨ |⑤⑥⑦⑧|
口口⑤⑦ |⑨⑩⑪-|
④⑧口① |----|
88
口口口① |①---|
口口①口 |----|
口①口口 |----|
①口口口 |----|

不確定度: 0

最終更新:2014年07月27日 02:29