Stella Sinistra
Akhuta Philharmonic Orchestra

EXTREME

Level: 9
BPM: 120-180
Notes: 743

1
口口口口 |----|
口口口口 |----|
口口口口 |----|
口口口口
2
口口口② |①--②|
口口③口 |--③-|
口①口口 |-④--|
④口口口
3
④口口口 |①--②|
口①口口 |--③-|
口口③口 |-④--|
口口口②
4
口口口口 |①--②|
口①④口 |--③-|
口③②口 |-④--|
口口口口
5
①口口口 |①---|
口口口口 |----|
口口口口 |----|
口口口口
6
口口口口 |①--②|
口②口口 |--③-|
口④③口 |-④--|
口口口①
7
口口口口 |①--②|
口④①口 |-------③----|
口③②口 |---④----|
口口口口
8
口口口④ |-①----|
口口①口 |②--③|
口③口口 |-----④--|
②口口口
9
口口口口 |----①-|
口口①口 |----|
口口口口 |----|
口口口口
10
口口口口 |----|
口口口口 |----|
口口口口
口口口口

BPM: 180
11
口口②口 |①---|
①③口① |②-③-④-|
⑥口④⑥ |⑤---⑥-|
①⑤口①
12
①⑤口① |①---|
口口④口 |②-③-④-|
口③口口 |⑤---|
口口②口
13
口口②口 |①---|
①③口① |②-③-④-|
⑦口④⑦ |⑤-⑥-⑦-|
①⑤⑥①
14
①⑤⑥① |①---|
口⑦④口 |②-③-④-|
口③口口 |⑤-⑥-⑦-|
②口口口
15
⑦口口⑧ |①-②-③-|
⑨口口⑥ |④-⑤-⑥-|
⑤口①口 |⑦-⑧-⑨-|
口④②③
16
口口③口 |①-②-③-|
口④⑨口 |④-⑤-⑥-|
口⑧⑤① |⑦-⑧-⑨-|
②⑥⑦口
17
口口⑦① |①-②-③-|
④⑧口② |④-⑤-⑥-|
⑤口⑨③ |⑦-⑧-⑨-|
⑥口口口
18
口①口④ |①-②-③-|
⑦口②⑤ |④-⑤-⑥-|
⑧③口⑥ |⑦-⑧-⑨-|
⑨口口口
19
③②①⑦ |①-②-③-|
口口口⑧ |④-⑤-⑥-|
口口口⑨ |⑦-⑧-⑨-|
口⑥⑤④
20
口口口口 |①-②-③-|
①④⑦口 |④-⑤-⑥-|
②⑥⑤口 |⑦---|
③口口口
21
口口口① |①-②-③-|
⑨口口② |④-⑤-⑥-|
⑧口口③ |⑦-⑧-⑨-|
⑦④⑤⑥
22
③②①口 |①-②-③-|
口④⑦口 |④-⑤-⑥-|
口⑥⑤口 |⑦---|
口口口口
23
口口口① |①-②-③-|
⑨口口② |④-⑤-⑥-|
⑧口口③ |⑦-⑧-⑨-|
⑦④⑤⑥
24
③②①口 |①-②-③-|
口④⑦口 |④-⑤-⑥-|
口⑥⑤口 |⑦---|
口口口口
25
②口口口 |①---|
①口⑤① |②---|
①④口① |③-④-⑤-|
③口口②
26
口口口① |①---|
②⑤口② |②---|
②口④② |③-④-⑤-|
口口口③
27
①口口口 |①---|
口口⑤口 |②---|
口④口口 |③-④-⑤-|
③②②口
28
⑤⑥⑦① |①-②-③-|
口④口⑧ |④-⑤-⑥-|
口口③⑨ |⑦-⑧-⑨-|
口口口②
29
口口口口 |①---|
口口②口 |②---|
②口③口 |----③-|
口口①口
30
①口口① |①---|
②口口口 |----|
口②口口 |②---|
口口②口
31
口口口③ |①---|
⑥②④① |②---|
口⑤②口 |③④⑤⑥|
①口口①
32
②①②口 |①---|
口④口③ |②③-④|
⑤口口口 |⑤⑥-⑦|
⑦⑥⑦口
33
口⑤口口 |①---|
③口②④ |②-③-④-|
⑦⑥口① |⑤-⑥-⑦-|
口口口口
34
④口②① |①-②-③-|
口③口⑦ |④-⑤-⑥-|
口口⑦⑤ |⑦---|
口⑦⑥口
35
口口③② |①-②-③-|
①⑤④口 |④-⑤-⑥-|
⑦⑨口⑥ |⑦-⑧-⑨-|
①⑧口①
36
⑤口⑤口 |①-②-③-|
口⑦口⑥ |④-⑤⑥|
⑧口①口 |-⑦⑧⑨|
③⑨②④
37
口口口口 |①---|
口口口③ |----|
④④口① |②-③-④-|
口口②②
38
口①②口 |①---|
③口②口 |----|
口口口④ |②-③-④-|
口口口口
39
口⑦口⑥ |①---|
口口口口 |②-③-④-|
③①②口 |⑤-⑥-⑦-|
⑤①④口
40
④口④口 |①-②-③-|
口⑥②⑤ |④⑤-⑥|
⑦③口口 |⑦⑧-⑨|
⑨⑧⑨①
41
口口④口 |①---|
口⑤口③ |②---|
口②口① |③-④-⑤-|
口口口口
42
①②口② |①---|
口口口口 |②---|
③口③口 |③---|
口口口口
43
口口口口 |①---|
③口口③ |②---|
口②口② |③---|
口①口口
44
①⑤④⑧ |①②③④|
口②⑥口 |⑤⑥⑦⑧|
⑨⑫③⑩ |⑨⑩⑪⑫|
口⑦⑪口
45
口口②口 |①---|
①③口① |②-③-④-|
⑥口④⑥ |⑤---⑥-|
①⑤口①
46
①⑤口① |①---|
口口④口 |②-③-④-|
口③口口 |⑤---|
口口②口
47
口口②口 |①---|
①③口① |②-③-④-|
⑦口④⑦ |⑤-⑥-⑦-|
①⑤⑥①
48
①⑤⑥① |①---|
口⑦④口 |②-③-④-|
口③口口 |⑤-⑥-⑦-|
②口口口
49
⑦口口⑧ |①-②-③-|
⑨口口⑥ |④-⑤-⑥-|
⑤口①口 |⑦-⑧-⑨-|
口④②③
50
口口③口 |①-②-③-|
口④⑨口 |④-⑤-⑥-|
口⑧⑤① |⑦-⑧-⑨-|
②⑥⑦口
51
口口⑦① |①-②-③-|
④⑧口② |④-⑤-⑥-|
⑤口⑨③ |⑦-⑧-⑨-|
⑥口口口
52
口①口④ |①-②-③-|
⑦口②⑤ |④-⑤-⑥-|
⑧③口⑥ |⑦-⑧-⑨-|
⑨口口口
53
③②①⑦ |①-②-③-|
口口口⑧ |④-⑤-⑥-|
口口口⑨ |⑦-⑧-⑨-|
口⑥⑤④
54
口口口口 |①-②-③-|
①④⑦口 |④-⑤-⑥-|
②⑥⑤口 |⑦---|
③口口口
55
口口口① |①-②-③-|
⑨口口② |④-⑤-⑥-|
⑧口口③ |⑦-⑧-⑨-|
⑦④⑤⑥
56
③②①口 |①-②-③-|
口④⑦口 |④-⑤-⑥-|
口⑥⑤口 |⑦---|
口口口口
57
口口口① |①-②-③-|
⑨口口② |④-⑤-⑥-|
⑧口口③ |⑦-⑧-⑨-|
⑦④⑤⑥
58
③②①口 |①-②-③-|
口④⑦口 |④-⑤-⑥-|
口⑥⑤口 |⑦---|
口口口口
59
②口口口 |①---|
①口⑤① |②---|
①④口① |③-④-⑤-|
③口口②
60
口口口① |①---|
②⑤口② |②---|
②口④② |③-④-⑤-|
口口口③
61
①口口口 |①---|
口口⑤口 |②---|
口④口口 |③-④-⑤-|
③②②口
62
⑤⑥⑦① |①-②-③-|
口④口⑧ |④-⑤-⑥-|
口口③⑨ |⑦-⑧-⑨-|
口口口②
63
口口口② |①---|
③口③口 |②---|
口②口口 |③---|
③口①口
64
②口口口 |①---|
口③口③ |②---|
口口②口 |③---|
口①口③
65
口③口③ |①---|
口口②口 |②---|
口③口口 |③---|
②口①口
66
③口③口 |①---|
口②④口 |②---|
①⑤③口 |③-④-⑤-|
口口口②
67
⑨口口⑦ |①---|
①⑥⑧① |②③④⑤|
⑤口口③ |⑥⑦⑧⑨|
口②④口
68
口口口⑫ |①②③④|
④⑪口② |⑤⑥⑦⑧|
⑩①③⑧ |⑨⑩⑪⑫|
⑤⑦⑨⑥
69
②口口口 |①②③④|
⑥口①④ |⑤⑥⑦⑧|
⑫③⑤⑩ |⑨⑩⑪⑫|
⑦⑨⑪⑧
70
口口①口 |①---|
③口②③ |②---|
口口口口 |③---|
口口口口
71
口⑤口口 |①---|
口①④口 |②---|
①③口① |③-④-⑤-|
口②②口
72
口口④口 |①---|
①②⑤① |②---|
③口②③ |③-④-⑤-|
口③③口
73
①口口① |①---|
②口口② |②---|
口③③口 |③---|
②口口②
74
⑧口口口 |①-②-③-|
⑦①⑥⑨ |④-⑤-⑥-|
②口口⑤ |⑦-⑧-⑨-|
口③④口
75
口口口① |①---|
口⑧⑦口 |②③④⑤|
⑥⑤③⑨ |⑥⑦⑧⑨|
②口口④
76
口③②口 |①②③④|
①口⑫④ |⑤⑥⑦⑧|
⑪⑨⑧口 |⑨⑩⑪⑫|
⑦⑤⑥⑩
77
③⑥④⑤ |①-②-|
口②口口 |③-④-|
口口口① |⑤-⑥-|
口口口口
78
口口口口 |①---|
③口②③ |②---|
口①口口 |③---|
口口口口
79
口⑤口口 |①---|
口①④口 |②---|
①③口① |③-④-⑤-|
口②②口
80
口口④口 |①---|
①②⑤① |②---|
③口②③ |③-④-⑤-|
口③③口
81
①口口① |①---|
②口口② |②---|
口③③口 |③---|
②口口②
82
⑦⑧口⑨ |①-②-③-|
口①⑥口 |④-⑤-⑥-|
②口口⑤ |⑦-⑧-⑨-|
口③④口
83
口口①口 |①---|
口②⑤口 |②---|
口④口口 |③-④-⑤-|
③口口②
84
口口口① |①---|
②⑤口② |②---|
②口④② |③-④-⑤-|
口口口③
85
①口口口 |①---|
口口⑤口 |②---|
口④口口 |③-④-⑤-|
③②②口
86
⑤⑥⑦① |①-②-③-|
口④口⑧ |④-⑤-⑥-|
口口③⑨ |⑦-⑧-⑨-|
口口口②
87
口口口② |①---|
③口③口 |②---|
口②口口 |③---|
③口①口
88
②口口口 |①---|
口③口③ |②---|
口口②口 |③---|
口①口③
89
口口口口 |①---|
口口口口 |----|
①口口① |----|
口口口口
90
口口口口 |----|
口口口口 |----|
口口口口 |----|
口口口口
91
口③②① |----|
口口口口 |①②③---|
口口口口 |--④-|
④口口口
92
⑥⑤④③ |---①----|
⑦口口② |②-③-④-|
口口口口 |⑤-⑥-⑦-|
口口①口
93
⑨口口口 |①-②-③-|
口⑦⑥口 |④-⑤-⑥-|
①⑧⑤口 |⑦-⑧-⑨-|
②③④口
94
口口口⑨ |①-②-③-|
①口口⑧ |④-⑤-⑥-|
②口口⑦ |⑦-⑧-⑨-|
③④⑤⑥
95
③②①口 |①-②-③-|
④口口口 |④-⑤---|
⑤口口口 |----|
口口口口
96
口口口口 |----|
口口口口 |----|
口口口口 |----|
口口口口
97
口口口口 |----|
口口口口 |----|
口口口口 |----|
口口口口
98
口口口口 |----|
口口口口 |----|
口口口口 |----|
口口口口
99
口口口口 |----|
口口口口 |----|
口口口口 |----|
口口口口
100
口口口口 |①---|
③口口口 |②---|
②③口口 |③---|
①②③口
101
①②③口 |①---|
口①②③ |②---|
口口①② |③---|
口口口①
102
口口口① |①---|
②口口口 |②③④⑤|
口③口⑤ |⑥---|
①⑥④口
103
口口口② |①---|
口④③口 |②-③-④-|
①⑤①口 |⑤---|
口口口口
104
①口口口 |①---|
口口口② |②③④⑤|
⑤口③口 |⑥---|
口④⑥①
105
②口口口 |①---|
口③④口 |②-③-④-|
口①⑤① |⑤---|
口口口口
106
口口口口 |①---|
口口口口 |----|
口口口口 |----|
①口口①
107
①口口口 |----|
口②口口 |①---|
口口口口 |②---|
口口口口
108
口口口口 |①---|
口口口口 |----|
口口①① |----|
口口①①
109
①口口口 |①②③-|
口②口口 |----|
口口③口 |----|
口口口口

不確定度: 0

最終更新:2014年07月27日 02:27