We're so Happy
Ryu☆

BASIC

Level: 5
BPM: 185
Notes: 248

1
口口口口 |----|
口口口口 |----|
口口口口 |----|
口口口口 |----|
2
口口口口 |①---|
口①口口 |----|
口口口口 |----|
口口口口 |----|
3
口口口口 |①---|
口口①口 |----|
口口口口 |----|
口口口口 |----|
4
口口口口 |①---|
口口口口 |----|
口①口口 |----|
口口口口 |----|
5
口口口口 |①---|
口口口口 |----|
口口①口 |----|
口口口口 |----|
6
口①①口 |①---|
口②③④ |--②-|
口口口口 |--③-|
口口口口 |--④-|
7
口口口口 |----|
口口口口 |----|
口口口口 |----|
口口口口 |----|
8
口口口口 |①---|
口口口口 |--②-|
口②③④ |--③-|
口①①口 |--④-|
9
口口口口 |----|
口口口口 |----|
口口口口 |----|
口口口口 |----|
10
口口口口 |①---|
①口口① |----|
①口口① |----|
口口口口 |----|
11
口①①口 |①---|
口②③④ |--②-|
口口口口 |--③-|
口口口口 |--④-|
12
口口口口 |----|
口口口口 |----|
口口口口 |----|
口口口口 |----|
13
口口口口 |①---|
①口口口 |----|
口口口口 |----|
口口口口 |----|
14
口口口口 |①---|
口口口① |----|
口口口口 |----|
口口口口 |----|
15
口口口口 |①---|
口口口口 |--②-|
口②③④ |--③-|
口①①口 |--④-|
16
口口口口 |----|
口口口口 |----|
口口口口 |----|
口口口口 |----|
17
口口口口 |①---|
口口口口 |----|
①口口口 |----|
口口口口 |----|
18
口口口口 |①---|
口口口口 |----|
口口口① |----|
口口口口 |----|
19
口①①口 |①---|
口②③④ |--②-|
口口口口 |--③-|
口口口口 |--④-|
20
口口口口 |----|
口口口口 |----|
口口口口 |----|
口口口口 |----|
21
口口口口 |①---|
口口口口 |--②-|
口②③④ |--③-|
口①①口 |--④-|
22
口口口口 |----|
口口口口 |----|
口口口口 |----|
口口口口 |----|
23
口口口口 |①---|
①口口口 |----|
口口口口 |----|
口口口口 |----|
24
口口口口 |①---|
口口口① |----|
口口口口 |----|
口口口口 |----|
25
口口口口 |①---|
口口口口 |----|
口①②口 |②---|
口口口口 |----|
26
口口口口 |①---|
①口口① |----|
①口口① |----|
口口口口 |----|
27
口口口口 |①---|
①④③② |--②-|
口口口口 |--③-|
口口口口 |--④-|
28
口口口口 |--①-|
口口口口 |--②-|
①③④② |--③-|
口口口口 |④---|
29
口口口口 |①---|
①④③② |--②-|
口口口口 |--③-|
口口口口 |--④-|
30
口口口口 |--①-|
口口口口 |--②-|
①③④② |--③-|
口口口口 |④---|
31
口口口口 |①---|
①④③② |--②-|
口口口口 |--③-|
口口口口 |--④-|
32
口口口口 |--①-|
口口口口 |--②-|
①③④② |--③-|
口口口口 |④---|
33
口口口口 |①---|
①④③② |--②-|
口口口口 |--③-|
口口口口 |--④-|
34
口口口口 |--①-|
口口口口 |--②-|
①③④② |--③-|
口口口口 |④---|
35
①口口① |①---|
口口口口 |----|
口口口口 |----|
口口口口 |----|
36
口口口口 |①---|
①口口① |----|
口口口口 |----|
口口口口 |----|
37
口口口口 |①---|
口口口口 |----|
①口口① |----|
口口口口 |----|
38
口口口口 |①---|
口口口口 |----|
口口口口 |----|
①口口① |----|
39
口①②口 |①---|
口口口口 |----|
口口口口 |②---|
口口口口 |----|
40
口口口口 |①---|
口①②口 |----|
口口口口 |②---|
口口口口 |----|
41
口口口口 |①---|
口口口口 |----|
①①②② |②---|
口口口口 |----|
42
口口口口 |①---|
口口口口 |----|
口口口口 |②---|
①①②② |----|
43
口口口口 |①---|
①口口① |----|
①口口① |----|
口口口口 |----|
44
口口口口 |----|
口口口口 |----|
口口口口 |----|
口口口口 |----|
45
口①①口 |①---|
口②③④ |--②-|
口口口口 |--③-|
口口口口 |--④-|
46
口口口口 |----|
口口口口 |----|
口口口口 |----|
口口口口 |----|
47
口口口口 |①---|
口口口口 |--②-|
口②③④ |--③-|
口①①口 |--④-|
48
口口口口 |----|
口口口口 |----|
口口口口 |----|
口口口口 |----|
49
口①①口 |①---|
口②③④ |--②-|
口口口口 |--③-|
口口口口 |--④-|
50
口口口口 |----|
口口口口 |----|
口①①口 |①---|
口口口口 |----|
51
口①①口 |①---|
口口口口 |----|
口口口口 |----|
口口口口 |----|
52
口口口口 |----|
口口口口 |----|
口口口口 |----|
口口口口 |----|
53
口①①口 |①---|
口②③④ |--②-|
口口口口 |--③-|
口口口口 |--④-|
54
口口口口 |----|
口口口口 |----|
口口口口 |----|
口口口口 |----|
55
口口口口 |①---|
口口口口 |--②-|
口②③④ |--③-|
口①①口 |--④-|
56
口口口口 |----|
口口口口 |----|
口口口口 |----|
口口口口 |----|
57
口口口口 |----|
口口口口 |----|
口口口口 |----|
口口口口 |----|
58
口口口口 |----|
①②③口 |①---|
口口口口 |②---|
口口口口 |③---|
59
口③③口 |①---|
口口口口 |--②-|
口②②口 |----|
口①①口 |③---|
60
口口口口 |----|
口口口口 |----|
口口口口 |----|
口口口口 |----|
61
①口口口 |①---|
①②口口 |----|
口口口口 |②---|
口口口口 |----|
62
口口口口 |①---|
口口①② |----|
口口口口 |②---|
口口口口 |----|
63
口口口口 |①---|
口口口口 |----|
口口②① |②---|
口口口① |----|
64
口口口口 |①---|
口口口口 |----|
②①口口 |②---|
口口口口 |----|
65
①②口口 |①---|
①口口口 |----|
口口口口 |②---|
口口口口 |----|
66
口口①② |①---|
口口①口 |----|
口口口口 |②---|
口口口口 |----|
67
口口口口 |①---|
口口口口 |----|
口口②① |②---|
口口口① |----|
68
口口口口 |①---|
口口口口 |----|
②①口口 |②---|
②①口口 |----|
69
口①①口 |①---|
口口口口 |----|
口口口口 |----|
口口口口 |----|
70
口口口口 |----|
口口口口 |----|
口口口口 |----|
口口口口 |----|
71
口口口口 |①---|
口①①口 |----|
口口口口 |----|
口口口口 |----|
72
口口口口 |①---|
①口口① |----|
①口口① |----|
口口口口 |----|
73
口①①口 |①---|
口口口口 |----|
口口口口 |----|
口口口口 |----|
74
口口口口 |①---|
口①①口 |----|
口口口口 |----|
口口口口 |----|
75
口口口口 |①---|
口口口口 |----|
①②口口 |②---|
口口口口 |----|
76
口口口口 |①---|
口口口口 |----|
口口①② |②---|
口口口口 |----|
77
口口口口 |----|
口②口口 |①---|
口①②口 |----|
口口口口 |②---|
78
口口口口 |----|
①口口② |----|
①口口② |①---|
口口口口 |②---|
79
口①①口 |①---|
口②③④ |--②-|
口口口口 |--③-|
口口口口 |--④-|
80
口①①口 |①---|
口②③④ |--②-|
口口口口 |--③-|
口口口口 |--④-|
81
口口口口 |①---|
口口口口 |--②-|
口②③④ |--③-|
口①①口 |--④-|
82
口口口口 |①---|
口口口口 |--②-|
口②③④ |--③-|
口①①口 |--④-|
83
口①①口 |①---|
口②③④ |--②-|
口口口口 |--③-|
口口口口 |--④-|
84
口口口口 |----|
口口口口 |----|
口①①口 |①---|
口口口口 |----|
85
口①①口 |①---|
口口口口 |----|
口口口口 |----|
口口口口 |----|
86
口口口口 |----|
口口口口 |----|
口口口口 |----|
口口口口 |----|
87
口①①口 |①---|
口②③④ |--②-|
口口口口 |--③-|
口口口口 |--④-|
88
口①①口 |①---|
口②③④ |--②-|
口口口口 |--③-|
口口口口 |--④-|
89
口口口口 |①---|
口口口口 |--②-|
口②③④ |--③-|
口①①口 |--④-|
90
口口口口 |①---|
口口口口 |--②-|
口②③④ |--③-|
口①①口 |--④-|
91
口口口口 |----|
口口口口 |----|
口口口口 |----|
口口口口 |----|
92
口口口口 |----|
①②③口 |①---|
口口口口 |②---|
口口口口 |③---|
93
口③③口 |①---|
口口口口 |--②-|
口②②口 |----|
口①①口 |③---|


不確定度: 0

最終更新:2013年12月29日 02:42