We're so Happy
Ryu☆

ADVANCED

Level: 8
BPM: 185
Notes: 724

1
口口口口 |----|
口口口口 |----|
口口口口 |----|
口口口口 |----|
2
口①口① |①---|
①口①口 |----|
口口口口 |----|
口口口口 |----|
3
口口口口 |①---|
口口口口 |----|
口①口① |----|
①口①口 |----|
4
①口①口 |①---|
口①口① |----|
口口口口 |----|
口口口口 |----|
5
口口口口 |①---|
口口口口 |----|
①口①口 |----|
口①口① |----|
6
口口⑥口 |①-②-|
①⑤⑥口 |③-④-|
②⑤口④ |--⑤-|
③口口④ |--⑥-|
7
口口口口 |----|
口口口口 |----|
口口口口 |----|
口口口口 |----|
8
口口口⑤ |①-②-|
②④⑤口 |--③-|
①④口③ |--④-|
口口③口 |--⑤-|
9
口口口口 |----|
口口口口 |----|
口口口口 |----|
口口口口 |----|
10
④口⑤口 |①-②-|
口④口⑤ |③-④-|
口口口口 |--⑤-|
口①②③ |----|
11
口口⑥口 |①-②-|
①⑤⑥口 |③-④-|
②⑤口④ |--⑤-|
③口口④ |--⑥-|
12
口口⑥口 |①-②-|
①⑤⑥口 |③-④-|
②⑤口④ |--⑤-|
③口口④ |--⑥-|
13
①②⑦口 |①-②-|
口口口口 |③-④-|
⑤⑥③④ |--⑤-|
口口口口 |⑥-⑦-|
14
口③口① |①-②-|
口④口② |③-④-|
口口⑥口 |--⑤-|
口⑦口⑤ |⑥-⑦-|
15
口口口⑤ |①-②-|
②④⑤口 |--③-|
①④口③ |--④-|
口口③口 |--⑤-|
16
口口口⑤ |①-②-|
②④⑤口 |--③-|
①④口③ |--④-|
口口③口 |--⑤-|
17
口口口口 |①-②-|
④⑤口口 |--③-|
口口口③ |--④-|
①②⑥口 |⑤-⑥-|
18
③⑥口④ |①-②-|
口口⑤口 |--③-|
口口②口 |--④-|
口口口① |⑤-⑥-|
19
口口⑥口 |①-②-|
①⑤⑥口 |③-④-|
②⑤口④ |--⑤-|
③口口④ |--⑥-|
20
口口⑥口 |①-②-|
①⑤⑥口 |③-④-|
②⑤口④ |--⑤-|
③口口④ |--⑥-|
21
口口口⑤ |①-②-|
②④⑤口 |--③-|
①④口③ |--④-|
口口③口 |--⑤-|
22
口口口⑤ |①-②-|
②④⑤口 |--③-|
①④口③ |--④-|
口口③口 |--⑤-|
23
口①口口 |①-②-|
②口口口 |--③-|
口⑥⑤口 |--④-|
口口③④ |⑤-⑥-|
24
③口②口 |①-②-|
①③口② |--③-|
⑤口④口 |--④-|
口⑤口④ |--⑤-|
25
②⑥①⑤ |--①-|
⑧②⑦① |--②-|
口④口③ |③-④-|
④口③口 |⑤⑥⑦⑧|
26
口口⑤口 |①-②-|
口③口⑤ |③-④-|
④口②口 |--⑤-|
口④口① |----|
27
①②口⑥ |①-②-|
⑤口口⑥ |③-④-|
⑤口③④ |--⑤-|
口口口④ |--⑥-|
28
口①口口 |--①-|
口①口口 |--②-|
③④②口 |--③-|
口口②口 |④---|
29
口口③④ |①-②-|
①②口④ |③-④-|
⑤口口⑥ |--⑤-|
⑤口口⑥ |--⑥-|
30
①口口② |--①-|
①口口② |--②-|
④③口口 |--③-|
口口口口 |④---|
31
①②⑥⑥ |①-②-|
口口口④ |③-④-|
口口③④ |--⑤-|
⑤⑤口口 |--⑥-|
32
口口口口 |--①-|
①①口口 |--②-|
口③口口 |--③-|
口④②② |④---|
33
⑤⑤口口 |①-②-|
①②口④ |③-④-|
口口③④ |--⑤-|
口口⑥⑥ |--⑥-|
34
口④②② |--①-|
口③口口 |--②-|
①①口口 |--③-|
口口口口 |④---|
35
口口口⑥ |①-②-|
⑤口口⑥ |③-④-|
⑤口口④ |--⑤-|
①②③④ |--⑥-|
36
口口口⑥ |①-②-|
⑤口口⑥ |③-④-|
⑤口口④ |--⑤-|
①②③④ |--⑥-|
37
口口口⑥ |①-②-|
⑤口口⑥ |③-④-|
⑤口口④ |--⑤-|
①②③④ |--⑥-|
38
口口口⑥ |①-②-|
⑤口口⑥ |③-④-|
⑤口口④ |--⑤-|
①②③④ |--⑥-|
39
口口⑦⑧ |①-②-|
⑤⑥口口 |③-④-|
口口③④ |⑤-⑥-|
①②口口 |⑦-⑧-|
40
②③口④ |①---|
口口口口 |②---|
②③口④ |③---|
①①①① |④---|
41
③口口③ |①---|
②②②② |--②-|
③口口③ |----|
①①①① |③---|
42
口口口口 |----|
口口口口 |----|
口口口口 |----|
口口口口 |----|
43
⑤口口⑤ |①-②-|
④④④④ |③-④-|
⑤③口⑤ |--⑤-|
口①②口 |----|
44
口口口⑥ |①②③---|
口口⑥④ |④---|
口口④⑤ |⑤---|
①②⑤③ |⑥---|
45
口口⑥口 |①-②-|
①⑤⑥口 |③-④-|
②⑤口④ |--⑤-|
③口口④ |--⑥-|
46
口口⑥口 |①-②-|
①⑤⑥口 |③-④-|
②⑤口④ |--⑤-|
③口口④ |--⑥-|
47
口口口⑤ |①-②-|
②④⑤口 |--③-|
①④口③ |--④-|
口口③口 |--⑤-|
48
口口口⑤ |①-②-|
②④⑤口 |--③-|
①④口③ |--④-|
口口③口 |--⑤-|
49
口口⑥口 |①-②-|
①⑤⑥口 |③-④-|
②⑤口④ |--⑤-|
③口口④ |--⑥-|
50
口口口口 |----|
①口口① |----|
口口口口 |①---|
口口口口 |----|
51
①口口① |①---|
口口口口 |----|
①口口① |----|
口口口口 |----|
52
口口口口 |----|
口口口口 |----|
口口口口 |----|
口口口口 |----|
53
口口⑥口 |①-②-|
①⑤⑥口 |③-④-|
②⑤口④ |--⑤-|
③口口④ |--⑥-|
54
口口⑥口 |①-②-|
①⑤⑥口 |③-④-|
②⑤口④ |--⑤-|
③口口④ |--⑥-|
55
口口口⑤ |①-②-|
②④⑤口 |--③-|
①④口③ |--④-|
口口③口 |--⑤-|
56
口口口⑤ |①-②-|
②④⑤口 |--③-|
①④口③ |--④-|
口口③口 |--⑤-|
57
口口口口 |----|
口口口口 |----|
口口口口 |----|
口口口口 |----|
58
口口口口 |----|
口②②口 |①---|
③③③③ |②---|
口①①口 |③---|
59
③口口③ |①---|
①②②① |--②-|
③口口③ |----|
①②②① |③---|
60
口口口口 |----|
口口口口 |----|
口口口口 |----|
口口口口 |----|
61
口口②③ |①-②③|
①⑦⑥口 |-④-⑤|
①口⑧口 |--⑥-|
④口口⑤ |⑦-⑧-|
62
⑦⑧②③ |①-②③|
⑥口口口 |-④-⑤|
①口口口 |-⑥-⑦|
④口⑨⑤ |⑧-⑨-|
63
口口口口 |①-②③|
⑥口②③ |-④-⑤|
①⑦⑧⑤ |--⑥-|
④口口口 |⑦-⑧-|
64
②③口口 |①-②③|
口⑤口④ |-④-⑤|
口⑧口⑥ |-⑥-⑦|
口⑦口① |⑧---|
65
口口②③ |①-②③|
①⑦⑥口 |-④-⑤|
①口⑧口 |--⑥-|
④口口⑤ |⑦-⑧-|
66
⑦⑧②③ |①-②③|
⑥口口口 |-④-⑤|
①口口口 |-⑥-⑦|
④口⑨⑤ |⑧-⑨-|
67
口口口口 |①-②③|
⑥口②③ |-④-⑤|
①⑦⑧⑤ |--⑥-|
④口口口 |⑦-⑧-|
68
口③口口 |①-②③|
⑤②口④ |-④-⑤|
口⑧口⑥ |-⑥-⑦|
口⑦口① |⑧---|
69
①②口④ |①-②-|
⑤口③④ |③-④-|
⑤口口⑥ |--⑤-|
口口口⑥ |--⑥-|
70
口①口口 |--①-|
口①口口 |--②-|
③④②口 |--③-|
口口②口 |④---|
71
⑤⑤③④ |①-②-|
①②口④ |③-④-|
口口口口 |--⑤-|
口口⑥⑥ |--⑥-|
72
⑤口口⑤ |①-②-|
①②③口 |③-④-|
④口口④ |--⑤-|
口口口口 |----|
73
口口口口 |①-②-|
④④口⑤ |③-④-|
⑥⑥口⑤ |--⑤-|
①②③口 |--⑥-|
74
口口口口 |①-②-|
④④口⑤ |③-④-|
⑥⑥口⑤ |--⑤-|
①②③口 |--⑥-|
75
①②③④ |①-②-|
口口口口 |③-④-|
口口口口 |--⑤-|
口⑦⑥⑤ |⑥-⑦-|
76
口口⑥⑧ |①-②-|
②④口⑦ |③-④-|
①③⑤口 |⑤-⑥-|
口口口口 |⑦-⑧-|
77
⑦⑦⑦⑦ |①-②-|
口③③口 |③---|
①口⑥② |④⑤⑥-|
④口口⑤ |⑦---|
78
⑦⑦⑦⑦ |①-②-|
口⑥⑥口 |③-④-|
①⑤⑤③ |⑤-⑥-|
口④②口 |⑦---|
79
口口⑧口 |①-②-|
①⑥⑧口 |③-④-|
②⑥⑦④ |⑤-⑥-|
③⑤口④ |⑦-⑧-|
80
口口⑧口 |①-②-|
①⑥⑧口 |③-④-|
②⑥⑦④ |⑤-⑥-|
③⑤口④ |⑦-⑧-|
81
③口⑦⑧ |①-②-|
②⑥⑧口 |③-④-|
①⑥口④ |⑤-⑥-|
口口④⑤ |⑦-⑧-|
82
③口⑦⑧ |①-②-|
②⑥⑧口 |③-④-|
①⑥口④ |⑤-⑥-|
口口④⑤ |⑦-⑧-|
83
口口⑧口 |①-②-|
①⑥⑧口 |③-④-|
②⑥⑦④ |⑤-⑥-|
③⑤口④ |⑦-⑧-|
84
①口口② |①---|
口口口口 |②---|
③口口③ |③---|
口④口口 |④---|
85
②口口③ |①---|
①口口① |②---|
口口口口 |③---|
④口口口 |④---|
86
②口口③ |①---|
口口口口 |②---|
口④口口 |③---|
口口口① |④---|
87
口口⑧口 |①-②-|
①⑥⑧口 |③-④-|
②⑥⑦④ |⑤-⑥-|
③⑤口④ |⑦-⑧-|
88
口口⑧口 |①-②-|
①⑥⑧口 |③-④-|
②⑥⑦④ |⑤-⑥-|
③⑤口④ |⑦-⑧-|
89
③口⑦⑧ |①-②-|
②⑥⑧口 |③-④-|
①⑥口④ |⑤-⑥-|
口口④⑤ |⑦-⑧-|
90
③口⑦⑧ |①-②-|
②⑥⑧口 |③-④-|
①⑥口④ |⑤-⑥-|
口口④⑤ |⑦-⑧-|
91
口口口口 |①---|
①口口② |②---|
③口口④ |③---|
口口口口 |④---|
92
口口口口 |①---|
①③③口 |②---|
④④④④ |③---|
口②②口 |④---|
93
③口口③ |①---|
①②②① |--②-|
③口口③ |----|
①②②① |③---|
94
口①①口 |①---|
④④④④ |②---|
口②②口 |③---|
口③③口 |④---|
95
①口口① |①---|
口口口口 |----|
①口口① |----|
口口口口 |----|


不確定度: 0

最終更新:2013年12月29日 02:42