イ号零型
あさき

BASIC

Level: 3
BPM: 170
Notes: 200

1
口口口口 |----|
口口口口 |----|
口口口口 |----|
口口口口 |----|
2
①口口口 |----|
口口口口 |----|
口口口口 |①---|
口口口口 |----|
3
口口口① |①---|
口口口口 |----|
口口口口 |----|
口口口口 |----|
4
口口口口 |----|
①口口口 |----|
口口口口 |①---|
口口口口 |----|
5
口口口口 |①---|
口口口① |----|
口口口口 |----|
口口口口 |----|
6
口口口口 |----|
口口口口 |----|
①口口口 |①---|
口口口口 |----|
7
口口口口 |①---|
口口口口 |----|
口口口① |----|
口口口口 |----|
8
口口口口 |----|
口口口口 |----|
口口口口 |----|
口口口口 |----|
9
口口口口 |①---|
口口口口 |----|
口口口口 |----|
口①①口 |----|
10
口口口口 |①---|
口口口口 |----|
口①①口 |----|
口口口口 |----|
11
①①②② |①---|
③③口口 |--②-|
口口口口 |----|
口口口口 |③---|
12
口口口口 |--①-|
口口①① |----|
口②②口 |②---|
口口口口 |----|
13
口口口口 |①---|
①①②② |--②-|
③③口口 |----|
口口口口 |③---|
14
口口口口 |--①-|
口口口口 |----|
口口①① |②---|
口②②口 |----|
15
①①②② |①---|
③③口口 |--②-|
口口口口 |----|
口口口口 |③---|
16
口口口口 |--①-|
口口①① |----|
口②②口 |②---|
口口口口 |----|
17
口口口口 |①---|
①①②② |--②-|
③③口口 |----|
口口口口 |③---|
18
口口口口 |--①-|
口口口口 |----|
口口①① |②---|
口②②口 |----|
19
①口①口 |①---|
口口口口 |----|
口口口口 |----|
口口口口 |----|
20
口口口口 |①---|
口①口① |----|
口口口口 |----|
口口口口 |----|
21
口口口口 |①---|
口口口口 |----|
①口①口 |----|
口口口口 |----|
22
口口口口 |①---|
口口口口 |----|
口②口② |②---|
①口①口 |----|
23
口口口口 |①---|
①口①口 |----|
口口口口 |----|
口口口口 |----|
24
口①口① |①---|
口②口② |----|
口口口口 |②---|
口口口口 |----|
25
口口口口 |①---|
口口口口 |----|
口①口① |----|
口口口口 |----|
26
口口口口 |①---|
口口口口 |----|
口①①口 |----|
口口口口 |----|
27
口口口口 |①---|
①②口① |----|
口口口口 |----|
口口口口 |②---|
28
口①口口 |①---|
口口口口 |----|
口口口口 |----|
口口口口 |----|
29
口口口口 |①---|
①口口① |----|
口口②口 |----|
口口口口 |②---|
30
口口口口 |①---|
口口①口 |----|
口②口口 |----|
口口口口 |②---|
31
口口口口 |①---|
口①口口 |----|
口口口口 |----|
口口口口 |----|
32
口口口口 |----|
口口口① |----|
口口口口 |----|
口口口口 |①---|
33
口口口① |①---|
口口口口 |----|
口口口口 |----|
口口口口 |----|
34
口口口口 |①---|
口口口口 |----|
①②口① |----|
口口口口 |②---|
35
口口口口 |①---|
口①口口 |----|
口口口口 |----|
口口口口 |----|
36
口口口口 |----|
口口口口 |----|
口①口口 |----|
口口口口 |①---|
37
口①口口 |①---|
口口口口 |----|
口口口口 |----|
口口口口 |----|
38
口口①口 |----|
口口口口 |----|
口口口口 |----|
口口口口 |①---|
39
口口口口 |①---|
口口口口 |----|
口口①口 |----|
口口口口 |----|
40
口口口口 |----|
口口口口 |----|
口口口口 |----|
口口口口 |----|
41
口口口口 |①---|
口口口口 |----|
口口口口 |----|
口①①口 |----|
42
口口口口 |①---|
口口口口 |----|
①口口① |----|
口口口口 |----|
43
①口②口 |①---|
口口口口 |----|
口口口口 |----|
口口口口 |②---|
44
口口口口 |①---|
口①②口 |②---|
口口口口 |----|
口③口口 |③---|
45
口口口口 |①---|
口口口口 |----|
②③口口 |②---|
口口①口 |③---|
46
口口口口 |①---|
口口口② |----|
口口①口 |②---|
口口口口 |----|
47
口口②口 |①---|
①口口口 |----|
口口口口 |②---|
口口口口 |----|
48
口口口口 |①---|
口①②口 |②---|
口③④口 |③---|
口口口口 |④---|
49
口口口口 |①---|
口口口口 |----|
口口口口 |----|
口①口口 |----|
50
口口口口 |①---|
口口口口 |----|
口口②口 |----|
①口口① |②---|
51
口口口口 |①---|
①②③④ |②---|
口口口口 |③---|
口口口口 |④---|
52
①②③④ |①---|
口口口口 |②---|
口口口口 |③---|
口口口口 |④---|
53
口口口口 |①---|
口①口口 |②---|
口口②口 |③---|
口③④口 |④---|
54
口③④口 |①---|
口口②口 |②---|
口①口口 |③---|
口口口口 |④---|
55
口口口口 |①---|
①口口④ |②---|
口②③口 |③---|
口口口口 |④---|
56
口口口口 |①---|
口②③口 |②---|
①口口④ |③---|
口口口口 |④---|
57
口口口④ |①---|
口口③口 |②---|
口②口口 |③---|
①口口口 |④---|
58
④口口口 |①---|
口③口口 |②---|
口口②口 |③---|
口口口① |④---|
59
口口口口 |①---|
①④口① |②---|
口③③口 |--③-|
口②②口 |--④-|
60
口口②口 |①---|
口口①口 |②---|
口口口口
口口口口

口口口口
口口④口
口③口口 |③---|
口口口口 |④---|
61
口口口口 |①---|
口口口口 |②---|
①口口② |③---|
③口口④ |④---|
62
口口口口 |①---|
口口口口 |②---|
口③④口 |③---|
口①②口 |④---|
63
①口口② |①---|
口③④口 |②---|
口口口口 |③---|
口口口口 |④---|
64
口口口口 |①---|
口口口口 |②---|
①口口② |③---|
口③④口 |④---|
65
口口口口 |①---|
口口口口 |②---|
口③④口 |③---|
①口口② |④---|
66
口③④口 |①---|
①口口② |②---|
口口口口 |③---|
口口口口 |④---|
67
①口口口 |①---|
口口口口 |----|
口②口口 |----|
口口口口 |②---|
68
口口口口 |①---|
口①口口 |----|
口口口口 |----|
口口口口 |----|
69
口口口口 |①---|
①口口① |----|
口口口口 |----|
口口②口 |②---|
70
口口口口 |①---|
口口口口 |----|
②口①口 |----|
口口口口 |②---|
71
口口口口 |①---|
①口口口 |----|
口口口口 |----|
口口口口 |----|
72
口口口口 |----|
口口①口 |----|
口口口口 |----|
口口口口 |①---|
73
口口口口 |①---|
口口口口 |----|
口口①口 |----|
口口口口 |----|
74
口口口口 |①---|
②口口② |----|
①口口① |②---|
口口口口 |----|
75
口口口口 |①---|
口①①口 |----|
口①①口 |----|
口口口口 |----|


不確定度: 0

最終更新:2013年12月29日 02:27