イ号零型
あさき

ADVANCED

Level: 6
BPM: 170
Notes: 293

1
口口口口 |----|
口口口口 |----|
口口口口 |----|
口口口口 |----|
2
口口口口 |----|
口口口口 |----|
口口②口 |①---|
口①口口 |②---|
3
口①口口 |①---|
口口②口 |----|
口口口口 |②---|
口口口口 |----|
4
口口口口 |----|
口口口口 |----|
①②口口 |①---|
口口口口 |②---|
5
口口口口 |①---|
口口口口 |----|
口口①口 |②---|
口②口口 |----|
6
口口口① |----|
口口口口 |----|
口②口口 |①---|
口口口口 |②---|
7
②口口口 |①---|
口口①口 |----|
口口口口 |②---|
口口口口 |----|
8
口口口口 |----|
口②口口 |----|
口口①口 |----|
口口口口 |①-②-|
9
口口①口 |①---|
口口口口 |----|
②口口口 |②---|
口口口口 |----|
10
口口口口 |①---|
口口口口 |----|
口口口口 |----|
口口①① |----|
11
①②③口 |①-②-|
口⑥⑤④ |③-④-|
⑦⑧口口 |⑤-⑥-|
口口口口 |⑦-⑧-|
12
口⑥⑤口 |①-②-|
口⑧⑦口 |③-④-|
口口①口 |⑤-⑥-|
口④③② |⑦-⑧-|
13
口口口口 |①-②-|
口口⑧⑦ |③-④-|
④⑤⑥口 |⑤-⑥-|
口③②① |⑦-⑧-|
14
②③④口 |①-②-|
口①口口 |③-④-|
口⑤⑥口 |⑤-⑥-|
口⑦⑧口 |⑦-⑧-|
15
①②③口 |①-②-|
口⑥⑤④ |③-④-|
⑦⑧口口 |⑤-⑥-|
口口口口 |⑦-⑧-|
16
口⑥⑤口 |①-②-|
口⑧⑦口 |③-④-|
口口①口 |⑤-⑥-|
口④③② |⑦-⑧-|
17
口口口口 |①-②-|
⑦⑧口口 |③-④-|
口⑥⑤④ |⑤-⑥-|
①②③口 |⑦-⑧-|
18
口④③② |①-②-|
口口①口 |③-④-|
口⑥⑤口 |⑤-⑥-|
口⑧⑦口 |⑦-⑧-|
19
口口口口 |①---|
口口①① |----|
口②口口 |----|
口口口口 |--②-|
20
口口口口 |①---|
口口口口 |----|
口口③口 |----|
口②①口 |②-③-|
21
③口②口 |①-②-|
口①口口 |③---|
口口口口 |----|
口口口口 |----|
22
口口口口 |①---|
口口②口 |----|
口口口口 |②---|
口口①口 |----|
23
①①口口 |①---|
口口口口 |----|
口③口口 |----|
口口②口 |②-③-|
24
口口口① |①---|
口②口口 |----|
口口口口 |②---|
口口口口 |----|
25
口口口口 |①-②-|
口口①口 |③---|
口②口口 |----|
口口③口 |----|
26
口口口口 |①---|
口口口口 |----|
口口口口 |----|
①口口口 |----|
27
⑤口④口 |①-②-|
口③口⑥ |③-④-|
⑦口②口 |--⑤-|
口①口口 |⑥-⑦-|
28
口口口口 |----|
口口口口 |----|
口口口口 |----|
口口口口 |----|
29
口④口⑤ |①-②-|
⑥口③口 |③-④-|
口②口⑦ |--⑤-|
口口①口 |⑥-⑦-|
30
口口口口 |----|
口口口口 |----|
口①①口 |----|
口口口口 |①---|
31
①口口① |①---|
口口口口 |----|
口口口口 |----|
口口口口 |----|
32
口口口口 |----|
口口口口 |----|
口口口口 |----|
口①①口 |①---|
33
口口口口 |①---|
①口口① |----|
口口口口 |----|
口口口口 |----|
34
口口口口 |①---|
口口口口 |----|
口①①口 |----|
②口口口 |②---|
35
①口口① |①---|
口口口口 |----|
口口口口 |----|
口口口口 |----|
36
口口口口 |----|
口口口口 |----|
口口口口 |----|
口口口① |①---|
37
口口口口 |①---|
口①①口 |----|
口口口口 |----|
口口口口 |----|
38
①口口① |----|
口口口口 |----|
口口口口 |----|
口口口口 |①---|
39
口口口口 |①---|
口口口口 |----|
口①①口 |----|
口口口口 |----|
40
口口口口 |----|
口口口口 |----|
口口口口 |----|
口口口口 |----|
41
口口口口 |①---|
口口口口 |----|
①口口① |----|
口口口口 |----|
42
口口口口 |①---|
①口口① |----|
口口口口 |----|
口口口口 |----|
43
口①口① |①---|
口口口② |----|
口③口口 |----|
口口口口 |②---③-|
44
口口口口 |①---②-|
口口口口 |③---|
口口①口 |----|
④②③口 |④---|
45
口口口口 |①---|
口③①口 |----|
口口②口 |②---|
口口口口 |③---|
46
口口①口 |①---|
②口口② |----|
口口口口 |②---|
口口口口 |----|
47
口口口口 |①---|
口②口口 |----|
口口口口 |②---|
口口①口 |----|
48
③口口口 |①---|
口口④口 |②---|
口口②口 |③---|
①口口口 |④---|
49
口口口口 |①---|
口口口口 |----|
口①口口 |----|
口口口口 |----|
50
口口口口 |①---|
口④口口 |----|
口口③口 |--②-|
②①①口 |③-④-|
51
口③③① |①---|
口口口口 |②---|
②④口② |--③-|
口口口口 |--④-|
52
口口口口 |①---|
②口口② |----|
口口①口 |②---|
③口口③ |③---|
53
④口口④ |①-②-|
口口①口 |③---|
⑤②口⑤ |--④-|
口口③口 |--⑤-|
54
口口①口 |①-②-|
口②口口 |③---|
口口③口 |----|
口口口口 |----|
55
口口口口 |①---|
②口口② |----|
口口口口 |②---|
口①①口 |----|
56
④口口③ |①---|
口②①口 |②---|
口①②口 |③---|
③口口④ |④---|
57
口口口口 |①---|
口②②口 |----|
口①①口 |②---|
口口口口 |----|
58
口①①口 |①---|
口口口口 |----|
②口口② |②---|
口口口口 |----|
59
①④④① |①---|
口口口口 |②-③-|
③⑤⑤③ |--④-|
口②②口 |--⑤-|
60
①口口口 |①-②-|
口口口② |③---|
口口口口 |----|
③④④口 |④---|
61
口③④口 |①--②|
①③④② |--③-|
①⑤⑤② |④--⑤|
⑥口口⑥ |--⑥-|
62
口口口口 |①---|
口口口口 |----|
口②②口 |②---|
口①①口 |----|
63
口口口口 |①---|
口①①口 |----|
口③口口 |----|
口口②口 |②-③-|
64
口口口口 |①---|
口口①口 |----|
口口口口 |②---|
②口口② |----|
65
①口口① |①---|
口口口口 |----|
口口口口 |----|
口口口口 |----|
66
口口口口 |①---|
口口口口 |----|
口①①口 |----|
口口口口 |----|
67
⑤口④口 |①-②-|
口③口⑥ |③-④-|
⑦口②口 |--⑤-|
口①口口 |⑥-⑦-|
68
口口口口 |----|
口口口口 |----|
口口口口 |----|
口口口口 |----|
69
口④口⑤ |①-②-|
⑥口③口 |③-④-|
口②口⑦ |--⑤-|
口口①口 |⑥-⑦-|
70
口口口口 |----|
口口口口 |----|
口①①口 |----|
口口口口 |①---|
71
①口口① |①---|
口口口口 |----|
口口口口 |----|
口口口口 |----|
72
口口口口 |----|
口口①口 |----|
口口口口 |----|
口②口口 |①-②-|
73
口口口口 |----|
口口口口 |----|
口口口口 |----|
口口口口 |----|
74
口口口① |--①-|
②⑥⑦口 |②-③-|
口④⑤口 |④-⑤-|
口口口③ |⑥-⑦-|
75
⑧口口④ |①-②-|
③口口⑦ |③-④-|
⑥口口② |⑤-⑥-|
①口口⑤ |⑦-⑧-|
76
⑧口口④ |①-②-|
③口口⑦ |③-④-|
⑥口口② |⑤-⑥-|
①口口⑤ |⑦-⑧-|


不確定度: 0

最終更新:2013年12月29日 02:26