[E]
dj MAX STEROID

EXTREME

Level: 10
BPM: 152
Notes: 842

1
口口口口 |----|
口口口口 |----|
口口口口 |----|
口口口口 |----|
2
口⑧⑦口 |①-②③|
⑥口口口 |④--⑤|
口④③⑤ |-⑥⑦⑧|
①⑨⑨② |⑨---|
3
①⑤④① |①-②③|
口口口口 |-④⑤-|
口①①口
②口口③

⑩口口口
口⑩⑥口
⑦口⑨口 |⑥⑦⑧-|
口⑨⑧口 |⑨-⑩-|
4
口③③⑩ |①②-③|
⑥口⑩口 |-④⑤-|
④⑨⑦⑤ |⑥⑦⑧-|
②⑧⑨① |⑨-⑩-|
5
口③③口 |①②-③|
⑤口口④ |-④⑤-|
口口口口
①口口②

口口口口
口⑥口口
口⑨⑩⑦ |⑥⑦⑧-|
⑪⑧口口 |⑨⑩-⑪|
6
⑤④③⑤ |①②-③|
口口口口 |④-⑤-|
②口口口
口口口①

口口口口
口口⑦⑥
口口⑧口 |-⑥⑦⑧|
⑨⑩⑪⑫ |⑨⑩⑪⑫|
7
口①①口 |①-②③|
口⑤④口 |-④⑤-|
②口口③
口口口口

口口⑩⑧
⑦口口⑩
口⑥⑨口 |⑥⑦⑧-|
口⑨口口 |⑨-⑩-|
8
口口口口 |①②-③|
口②①口 |-④⑤-|
④③口⑤
口口③口

⑩口口⑧
⑦⑩口口
口口⑨口 |⑥⑦⑧-|
口⑨口⑥ |⑨-⑩-|
9
⑪②①⑪ |①②-③|
⑥⑨⑩口 |-④⑤-|
④③⑦⑤ |⑥⑦⑧-|
口⑧③口 |⑨⑩-⑪|
10
口②③口 |①---|
②④④③ |----|
③④④② |②--③|
①③②① |--④-|
11
②口口③ |①-②③|
口口口口 |-④⑤-|
⑤口口④
①口口①

口⑥口⑩
口口⑩⑦
口⑨口口 |⑥⑦⑧-|
口⑧⑨口 |⑨-⑩-|
12
⑩③③口 |①②-③|
④⑩⑧⑤ |-④⑤-|
②⑦⑨① |⑥⑦⑧-|
口⑨⑥口 |⑨-⑩-|
13
口⑤④口 |①②-③|
口口口③ |-④⑤-|
③口口口
①口口②

⑩口口⑩
⑥口口口
口口口⑦ |⑥⑦⑧-|
⑨⑧口⑨ |-⑨-⑩|
14
口④口口 |①②-③|
口口⑤③ |-④⑤-|
③①②口
口口口口

口口口口
⑥⑦口口
口⑧口口 |-⑥⑦⑧|
⑫⑪⑩⑨ |⑨⑩⑪⑫|
15
口①①⑩ |①-②③|
⑤⑥⑩④ |-④⑤-|
②⑨⑦③ |⑥⑦⑧-|
口⑧⑨口 |⑨-⑩-|
16
口①②口 |①②-③|
③口口口 |-④⑤-|
口口⑤③
④口口口

口⑩⑩口
口口口⑥
⑦口口口 |⑥⑦⑧-|
口⑨⑨⑧ |⑨-⑩-|
17
③口口② |①-②-|
①③②④ |③-④-|
③①④②
①口口④

口⑤⑤口
⑦口口口
口口口口 |--⑤-|
⑦⑥⑥口 |⑥-⑦-|
18
口口口① |--①-|
口口②口 |----|
口③口① |-②③④|
⑤口④⑤ |⑤---|
19
③③①口 |①②-③|
口①口② |----|
口口①口
口①口口

口口口口
⑤口口口
口④口口 |④---|
④⑤⑥⑥ |⑤--⑥|
20
②①④口 |-①-②|
口②口口 |----|
①口③④ |③---|
③口口口 |④---|
21
口①口② |①-②③|
④⑤口③ |----|
①口口口 |④---|
⑤④⑥⑥ |⑤--⑥|
22
①口口口 |-①-②|
②口口口 |----|
口①口口
口②口口

口④口口
⑤口④口
口口口③ |③-④-|
③⑤口④ |--⑤-|
23
口口口口 |①②-③|
口③口口 |----|
③①②口
口口口口

口④口④
⑥口⑤口
口⑤⑥⑥ |④---|
口⑥口口 |⑤--⑥|
24
③②口口 |-①--|
口口口口 |----|
②③口口 |②---|
口口①① |③---|
25
口口口口 |①②-③|
口①口口 |----|
口口口①
②口③③

口⑤口④
④口⑥⑤
⑥口⑥⑥ |④---|
口口口口 |⑤--⑥|
26
口口口口 |-①--|
口口口口 |----|
口口口口
口口①①

口④②口
③口口⑤
⑤口口③ |②-③-|
口②④口 |④-⑤-|
27
口口口口 |①②-③|
⑤口口口 |④--⑤|
口④③口
①④口②

⑨⑦口口
口口⑥口
口口口口 |⑥⑦--|
⑧口口口 |⑧--⑨|
28
口⑩④③ |①②-③|
⑤⑥⑨口 |④-⑤⑥|
口⑧①② |-⑦⑧⑨|
⑩口⑦口 |⑩---|
29
⑤⑧⑦⑪ |①②-③|
④口口③ |④--⑤|
①⑩口② |⑥-⑦⑧|
⑨④口⑥ |⑨-⑩⑪|
30
⑧⑥⑤口 |①-②-③-|
④①①口 |④---|
②口口② |⑤--⑥|
⑦③③口 |⑦-⑧-|
31
口④口⑤ |-①-②|
①口⑥① |③--④|
②口口② |⑤⑥--|
⑦③口⑧ |⑦--⑧|
32
口⑩口口 |①②-③|
⑤⑥⑨② |④-⑤⑥|
①⑧④③ |-⑦⑧⑨|
⑩④⑦口 |⑩---|
33
口⑨⑧口 |①②-③|
④⑤⑤③ |④---|
①⑥⑦② |⑤--⑥|
⑦④口口 |⑦-⑧⑨|
34
口口口口 |----|
口口口口 |----|
口口口口 |----|
口口口口 |----|
35
口③③口 |①---|
口口④⑤ |--②-|
口①①口 |③---|
口②②口 |④⑤--|
36
口⑤⑤口 |①-②③|
口口口口 |--④-|
②口口① |⑤---|
③④④口 |----|
37
口③③口 |①---|
④口口⑤ |--②-|
口①①口 |③---|
口②②口 |④⑤--|
38
口⑤⑤口 |①②-③|
口⑥⑥口 |--④-|
①⑥⑥② |⑤--⑥|
④③③④ |----|
39
①口口口 |①--②|
②口口口 |--③-|
③口口③
口口①②

⑤④口口
⑥口④口
口⑤⑥口 |--④-|
口口口口 |⑤-⑥-|
40
口⑥③① |①--②|
口③⑥② |--③-|
⑤④口口 |④--⑤|
②①④⑤ |--⑥-|
41
③口②① |①-②-|
①②口③ |③-④-|
④③①②
②①③④

口口口⑤
⑤口口口
口口口⑤ |----|
⑤口口口 |--⑤-|
42
②①①③ |①---|
③①①② |----|
口①①口 |②---|
口口口口 |③---|
43
口口口口 |①---|
口口①口 |----|
①口①口
①口口口

口口②③
口②口④
口④③口 |--②-|
口口口口 |③-④-|
44
①口③⑤ |①---|
⑤③口口 |--②-|
口口④② |③--④|
②④①口 |--⑤-|
45
②①③口 |①-②-|
口③①② |③-④-|
①②④③
③④②①

口口口口
口口口口
口⑤口口 |----|
口口⑤口 |--⑤-|
46
①口口① |①---|
口②②④ |②---|
③口口④ |③-④-|
③口口口 |----|
47
①口口口 |①--②|
②口口口 |--③-|
③口口③
口口①②

⑤④口口
⑥口④口
口⑤⑥口 |--④-|
口口口口 |⑤-⑥-|
48
口⑤口① |①--②|
口口⑤② |----|
④③口口 |③--④|
②①③④ |--⑤-|
49
③口②① |①-②-|
①②口③ |③-④-|
④③①②
②①③④

口口口口
口口口口
口口⑤口 |----|
口⑤口口 |--⑤-|
50
①口口① |①---|
④②②口 |②---|
④口口③ |③-④-|
口口口③ |----|
51
口口口① |①--②|
口口口② |--③-|
③口口③
②①口口

口口④⑤
口④口⑥
口⑥⑤口 |--④-|
口口口口 |⑤-⑥-|
52
①口④⑥ |①-②-|
⑥④口口 |--③-|
②口⑤③ |④--⑤|
③⑤①② |--⑥-|
53
②①③口 |①-②-|
口③①② |③-④-|
①②④③
③④②①

口口口口
⑤口口⑤
口口口口 |----|
口口口口 |--⑤-|
54
口口口口 |①-②-③-|
口①①口 |----|
②口口②
口③③口

④⑤⑥⑦
⑪⑩⑨⑧
口⑫⑫口 |④⑤⑥⑦⑧⑨⑩⑪|
口口口口 |⑫---|
55
⑧⑥⑥⑨ |①-②③|
⑤口口④ |--④⑤|
②⑦⑦③ |-⑥-⑦|
①口口① |-⑧⑨-|
56
⑦口口⑥ |①②-③|
⑥②①⑦ |--④⑤|
口④⑤口 |-⑥-⑦|
③⑧⑨③ |-⑧⑨-|
57
口口口口 |①②-③|
口③③口 |--④⑤|
①口口②
④口口⑤

⑦⑧口⑦
⑥口⑨⑥
口口口口 |-⑥-⑦|
口口口口 |-⑧⑨-|
58
口口口口 |①-②③|
⑤口口④ |-④⑤⑥|
口口⑥口
②①①③

⑧⑦⑦⑧
口⑩⑨口
口口口口 |⑦-⑧-|
口⑨⑩口 |⑨-⑩-|
59
⑧⑥⑥⑨ |①-②③|
⑤口口④ |--④⑤|
②⑦⑦③ |-⑥-⑦|
①口口① |-⑧⑨-|
60
⑦口口⑥ |①②-③|
⑥②①⑦ |--④⑤|
口④⑤口 |-⑥-⑦|
③⑧⑨③ |-⑧⑨-|
61
口口口口 |①②-③|
口③③口 |--④⑤|
①口口②
④口口⑤

⑦⑧口⑦
⑥口⑨⑥
口口口口 |-⑥-⑦|
口口口口 |-⑧⑨-|
62
口口④口 |①-②③|
⑤口口口 |-④⑤⑥|
口口⑥口
②①①③

⑧口口⑧
口⑩⑨口
⑦口口⑦ |⑦⑧-⑨|
口⑨⑩口 |--⑩-|
63
⑤⑤口③ |①---|
②口③④ |--②-|
口②④口 |③---|
①口口① |④-⑤-|
64
口口口④ |--①-|
②③④口 |②③④-|
口口口口
口口①①

口口⑥口
口口口⑥
⑤⑤口⑦ |⑤-⑥-|
口口⑦口 |--⑦-|
65
口③口口 |①---|
①①口口 |--②-|
③④②口 |③---|
口口⑤② |④-⑤-|
66
⑤口⑦① |--①-|
②③⑧④ |②③④-|
⑥口⑨⑥ |⑤-⑥-|
口口口口 |⑦⑧⑨-|
67
⑤⑤口③ |①---|
②口③④ |--②-|
口②④口 |③---|
①①口口 |④-⑤-|
68
口口口④ |--①-|
②③④口 |②③④-|
口口口口
口口①①

口口⑥口
口口口⑥
⑤⑤口⑦ |⑤-⑥-|
口口⑦口 |--⑦-|
69
口③口口 |①---|
①①口口 |--②-|
③④②口 |③---|
口口⑤② |④-⑤-|
70
⑤口⑦① |--①-|
②③⑧④ |②③④-|
⑥口⑨⑥ |⑤-⑥-|
口口口口 |⑦⑧⑨-|
71
②⑤⑤② |①---|
口口口口 |②---|
③⑥⑥④ |③④--|
口口口① |⑤--⑥|
72
②⑥⑥② |--①-|
口③④口 |②--③|
口⑤⑤口 |④-⑤-|
口①①口 |⑥---|
73
②⑤⑤② |①---|
口口口口 |②---|
①③④① |③④--|
口⑥⑥口 |⑤--⑥|
74
③⑨⑨④ |-①②-|
⑤①①口 |③④⑤-|
⑥口口⑦ |⑥⑦-⑧|
②⑧⑧② |-⑨--|
75
口口口口 |----|
口口口口 |----|
口口口口 |----|
口口口口 |----|
76
口①口口 |①---|
口①①口 |----|
口①①口 |----|
口口口口 |----|


不确定度: 0

最終更新:2012年11月08日 17:22