TSAR BOMBA
L.E.D.

BASIC

Level: 4
BPM: 190
Notes: 288

1
口口口口 |----|
口口口口 |----|
口口口口 |----|
口口口口 |----|
2
口口口口 |①---|
口口口口 |----|
口口口口 |----|
口①①口 |----|
3
口口口口 |----|
口口口口 |----|
口口口口 |----|
口口口口 |----|
4
口口口口 |①---|
口口口口 |----|
口①①口 |----|
口口口口 |----|
5
口口口口 |----|
口口口口 |----|
口口口口 |----|
口口口口 |----|
6
口口口口 |①---|
①口口① |----|
口口口口 |----|
口口口口 |----|
7
口口口口 |----|
口口口口 |----|
口口口口 |----|
口口口口 |----|
8
①口口① |①---|
口口口口 |----|
口口口口 |----|
口口口口 |----|
9
口口口口 |----|
口口口口 |----|
口口口口 |----|
口口口口 |----|
10
口①①口 |①---|
口②②口 |----|
口口口口 |②---|
口口口口 |----|
11
口口口口 |①---|
口口口口 |----|
①口口① |②---|
②口口② |----|
12
口口口口 |①---|
口口口口 |----|
口②②口 |②---|
口①①口 |----|
13
②口口② |①---|
①口口① |----|
口口口口 |②---|
口口口口 |----|
14
口①①口 |①---|
口②口口 |----|
口口口口 |----|
口口口口 |②---|
15
口口口口 |①---|
口口口口 |②---|
口②①口 |③---|
口④③口 |④---|
16
口口口口 |①-②-|
④③②① |③-④-|
⑥口口⑤ |⑤---|
口口口口 |⑥---|
17
口口口口 |①---|
口口口口 |②---|
口口口口 |③---|
②④③① |④---|
18
口口口口 |①---|
③①①② |----|
口①①口 |②---|
口口口口 |③---|
19
口口口口 |①---|
口口口口 |②---|
②口口① |③---|
④口口③ |④---|
20
口③②口 |①---|
口口口口 |----|
口①①口 |②---|
口①①口 |③---|
21
口口口口 |①---|
口②①口 |②---|
口④③口 |③---|
口口口口 |④---|
22
口口口口 |①---|
口口口口 |----|
口口口口 |----|
①口口① |----|
23
口口口口 |----|
口口口口 |----|
口口口口 |----|
口口口口 |----|
24
口口口口 |①---|
口口口口 |----|
①口口① |----|
口口口口 |----|
25
口口口口 |----|
口口口口 |----|
口口口口 |----|
口口口口 |----|
26
口口③① |①---|
口口④② |②---|
口口口口 |③---|
口口口口 |④---|
27
③①口口 |①---|
④②口口 |②---|
口口口口 |③---|
口口口口 |④---|
28
口口口口 |①---|
口口口口 |②---|
④③②① |③---|
口口口口 |④---|
29
口口口口 |①---|
口④④口 |②---|
口口口口 |③---|
①②③口 |④---|
30
口口口② |①---|
口口口口 |----|
口口口① |②---|
口口口口 |----|
31
②口口口 |①---|
口口口口 |----|
①口口口 |②---|
口口口口 |----|
32
口口口口 |①---|
口口口① |----|
口口口口 |②---|
口口口② |----|
33
口口口口 |①---|
①口口口 |----|
口口口口 |②---|
②口口口 |----|
34
口口口② |①---|
口口口口 |----|
口口①口 |②---|
口口口口 |----|
35
②口口口 |①---|
口口口口 |----|
口①口口 |②---|
口口口口 |----|
36
口口口口 |①-②-|
④③②① |③-④-|
口⑤⑤⑥ |⑤---|
口口口口 |--⑥-|
37
口口口口 |①-②-|
④③②① |③-④-|
口⑤⑤口 |⑤---|
口⑥⑥口 |⑥---|
38
口口口① |①---|
④口②口 |②---|
口③口口 |③---|
口口口口 |④---|
39
口①②③ |①---|
口口口④ |②---|
口口口口 |③---|
口口口口 |④---|
40
口口口口 |①---|
口口口口 |②---|
口④①口 |③---|
口②③口 |④---|
41
口②③④ |①---|
①口口口 |②---|
口口口口 |③---|
口口口口 |④---|
42
口口口口 |①---|
口口①口 |②---|
口③②口 |③---|
④口口口 |④---|
43
口口口口 |①---|
口口口口 |②---|
④③②口 |③---|
口①口口 |④---|
44
口口口口 |①-②-|
④③②① |③-④-|
口⑤⑤⑥ |⑤---|
口口口口 |--⑥-|
45
口口口口 |①-②-|
④③②① |③-④-|
口⑤⑤口 |⑤---|
口⑥⑥口 |⑥---|
46
口口口口 |①---|
口口口口 |----|
①口口① |----|
口口口口 |----|
47
口口口口 |----|
口口口口 |----|
口口口口 |----|
口口口口 |----|
48
口口口口 |①---|
口口口口 |②---|
口④③口 |③---|
口①②口 |④---|
49
口④③口 |①---|
口①②口 |②---|
口口口口 |③---|
口口口口 |④---|
50
口口口口 |①---|
①口口① |----|
口口口口 |----|
口口口口 |----|
51
口口口口 |----|
口口口口 |----|
口口口口 |----|
口口口口 |----|
52
①②口口 |①---|
口口③④ |②---|
口口口口 |③---|
口口口口 |④---|
53
口口口口 |①---|
口口口口 |②---|
①②口口 |③---|
口口③④ |④---|
54
口口口口 |①---|
口口口口 |----|
①口口① |----|
口口口口 |----|
55
口口口口 |----|
口口口口 |----|
口口口口 |----|
口口口口 |----|
56
口口口口 |①---|
口口④口 |②---|
口②③口 |③---|
①口口口 |④---|
57
口口②① |①---|
口③口口 |②---|
口④口口 |③---|
口口口口 |④---|
58
口口口口 |①---|
①口口① |----|
口口口口 |----|
口口口口 |----|
59
口口口口 |----|
口口口口 |----|
口口口口 |----|
口口口口 |----|
60
①口口口 |①---|
口②口口 |②---|
口口④口 |③---|
口口口③ |④---|
61
口口口③ |①---|
口口④口 |②---|
口②口口 |③---|
①口口口 |④---|
62
口口口口 |①---|
口口口口 |----|
①口口① |----|
口口口口 |----|
63
口口口口 |----|
口口口口 |----|
口口口口 |----|
口口口口 |----|
64
口口口口 |①---|
①口口① |----|
口口口口 |----|
口口口口 |----|
65
口口口口 |----|
口口口口 |----|
口口口口 |----|
口口口口 |----|
66
口口口口 |①---|
口口②口 |----|
口口①口 |②---|
口口口口 |----|
67
口口口口 |①---|
口②口口 |----|
口①口口 |②---|
口口口口 |----|
68
口口口口 |①---|
口口②口 |----|
口口①口 |②---|
口口口口 |----|
69
口口口口 |①---|
口②口口 |----|
口①口口 |②---|
口口口口 |----|
70
口口口口 |①---|
①口口① |----|
口口口口 |----|
口口口口 |----|
71
口口口口 |----|
口口口口 |----|
口口口口 |----|
口口口口 |----|
72
口口口口 |①---|
口口口口 |----|
①口口① |----|
口口口口 |----|
73
口口口口 |①-②-|
④③②① |③-④-|
口⑥⑤口 |--⑤-|
口口口口 |⑥---|
74
口口口口 |①---|
口口口口 |----|
口口口口 |----|
①口口① |----|
75
口口口口 |----|
口口口口 |----|
口口口口 |----|
口口口口 |----|
76
口口口口 |①---|
口口口口 |----|
①口口① |----|
口口口口 |----|
77
口口口口 |①-②-|
④③②① |③-④-|
口⑥⑤口 |--⑤-|
口口口口 |⑥---|
78
④③②① |①---|
口口口口 |②---|
口口口口 |③---|
口口口口 |④---|
79
口口口口 |①---|
④③②① |②---|
口口口口 |③---|
口口口口 |④---|
80
口口口口 |①---|
口口口口 |----|
口①①口 |----|
口口口口 |----|
81
口口口口 |①---|
口口口口 |②---|
口口口口 |③---|
④③②① |④---|
82
口口口口 |①---|
③②口口 |----|
口①①口 |②---|
口口口口 |③---|
83
口口口口 |①---|
口口口口 |②---|
④③②① |③---|
口口口口 |④---|
84
口③②① |①-②-|
口口口口 |③---|
口口口口 |----|
口口口口 |----|
85
口口口口 |①---|
④③②① |②---|
口口口口 |③---|
口口口口 |④---|
86
③②口口 |①---|
口口口口 |----|
口①①口 |②---|
口口口口 |③---|
87
口口口口 |①---|
④③②① |②---|
口口口口 |③---|
口口口口 |④---|
88
口口口口 |①---|
口口口口 |②---|
口①①口 |----|
口②②口 |----|
89
口口口口 |①---|
④③②① |②---|
口口口口 |③---|
口口口口 |④---|
90
③②口口 |①---|
口口口口 |----|
口①①口 |②---|
口口口口 |③---|
91
口口口口 |①---|
④③②① |②---|
口口口口 |③---|
口口口口 |④---|
92
口口口口 |①---|
口口口口 |②---|
口①①口 |----|
口②②口 |----|
93
④③②① |①---|
口口口口 |②---|
口口口口 |③---|
口口口口 |④---|
94
口口口口 |①---|
口①①口 |----|
口口口口 |----|
口口口口 |----|


不確定度: 0

最終更新:2013年12月29日 02:10