TSAR BOMBA
L.E.D.

ADVANCED

Level: 8
BPM: 190
Notes: 647

1
口口口口 |----|
口口口口 |----|
口口口口 |----|
口口口口 |----|
2
⑦⑦口口 |①-②-|
①②③口 |③-④-|
口④⑤⑥ |⑤-⑥-|
口口口口 |--⑦-|
3
口口①① |--①-|
口口口口 |--②-|
③口口④ |--③-|
⑤②②口 |④-⑤-|
4
口口⑦⑦ |①-②-|
口③②① |③-④-|
⑥⑤④口 |⑤-⑥-|
口口口口 |--⑦-|
5
①①口口 |--①-|
口口口口 |--②-|
④口口③ |--③-|
口②②⑤ |④-⑤-|
6
⑦⑦口口 |①-②-|
①②③口 |③-④-|
口④⑤⑥ |⑤-⑥-|
口口口口 |--⑦-|
7
口口①① |--①-|
口口口口 |--②-|
③口口④ |--③-|
⑤②②口 |④-⑤-|
8
口口⑦⑦ |①-②-|
口③②① |③-④-|
⑥⑤④口 |⑤-⑥-|
口口口口 |--⑦-|
9
①①口口 |--①-|
口口口口 |--②-|
④口口③ |--③-|
口②②⑤ |④-⑤-|
10
⑦⑦口口 |①-②-|
①②③口 |③-④-|
口④⑤⑥ |⑤-⑥-|
口口口口 |--⑦-|
11
口口①① |--①-|
口口口口 |--②-|
③口口④ |--③-|
⑤②②口 |④-⑤-|
12
口口⑦⑦ |①-②-|
口③②① |③-④-|
⑥⑤④口 |⑤-⑥-|
口口口口 |--⑦-|
13
①①口口 |--①-|
口口口口 |--②-|
④口口③ |--③-|
口②②⑤ |④-⑤-|
14
口①口口 |①---|
①口口口 |----|
④口⑤口 |②-③-|
②口③口 |④-⑤-|
15
③⑤④⑥ |①-②-|
①⑦②⑧ |③-④-|
口口口口 |⑤-⑥-|
口口口口 |⑦-⑧-|
16
口口口口 |①-②-|
⑤⑥⑦⑧ |③-④-|
①②③④ |⑤-⑥-|
①②③④ |⑦-⑧-|
17
④③②① |①-②-|
⑤⑥⑦⑧ |③-④-|
口口口口 |⑤-⑥-|
口口口口 |⑦-⑧-|
18
口口口口 |①--②|
④⑤⑥⑦ |--③-|
①②③口 |④-⑤-|
①②③口 |⑥-⑦-|
19
④③②① |①-②-|
⑤⑥⑦⑧ |③-④-|
口口口口 |⑤-⑥-|
口口口口 |⑦-⑧-|
20
口口口口 |①-②-③-|
⑤⑥⑦⑧ |④---|
口①②口 |⑤-⑥-|
口③④口 |⑦-⑧-|
21
④③②① |①-②-|
⑤⑥⑦⑧ |③-④-|
口口口口 |⑤-⑥-|
口口口口 |⑦-⑧-|
22
口⑦⑦口 |①-②-|
口口口口 |③-④-|
口④⑤⑥ |⑤-⑥-|
①②③口 |--⑦-|
23
③口口④ |--①-|
⑤①①口 |--②-|
口②②口 |--③-|
口口口口 |④-⑤-|
24
口⑦⑦口 |①-②-|
口口口口 |③-④-|
⑥⑤④口 |⑤-⑥-|
口③②① |--⑦-|
25
④口口③ |--①-|
口①①⑤ |--②-|
口②②口 |--③-|
口口口口 |④-⑤-|
26
⑧口口口 |①-②-|
口口口⑦ |③-④-|
口⑥⑤④ |⑤-⑥-|
①②③口 |⑦-⑧-|
27
口②③① |①-②-|
⑥④⑤口 |③-④-|
口口口⑦ |⑤-⑥-|
⑧口口口 |⑦-⑧-|
28
口口口⑧ |①-②-|
⑦口口口 |③-④-|
④⑤⑥口 |⑤-⑥-|
口③②① |⑦-⑧-|
29
①③②口 |①-②-|
⑦⑤④⑥ |③-④-|
⑦口口口 |⑤-⑥-|
口口口口 |⑦---|
30
口口口口 |①---|
口③⑤口 |②-③-|
口④②口 |--④-|
口①①口 |⑤---|
31
⑤②①③ |①-②-|
⑤口口③ |③---|
口口④⑥ |④-⑤-|
口口口口 |--⑥-|
32
口口⑥口 |①---|
口⑤③口 |②-③-|
口②④口 |--④-|
口①①口 |⑤-⑥-|
33
①①口口 |①---|
⑤口口② |②-③-|
③③口⑥ |--④-|
口口口④ |⑤-⑥-|
34
口口口口 |①---|
口③⑤口 |②-③-|
口④②口 |--④-|
口①①口 |⑤---|
35
口口①① |①---|
②口口口 |②-③-|
口口③③ |--④-|
④⑤⑤口 |⑤---|
36
④③①② |①-②-|
④③①② |③-④-|
口⑦⑥口 |⑤---|
⑤口口⑤ |--⑥⑦|
37
④③①② |①-②-|
④③①② |③-④-|
⑥口口⑥ |⑤---|
⑤口口⑤ |⑥---|
38
口口口口 |①---|
口③⑤口 |②-③-|
口④②口 |--④-|
口①①口 |⑤---|
39
口②①③ |①-②-|
⑤口口③ |③---|
口口④⑥ |④-⑤-|
⑦口口口 |⑥-⑦-|
40
口口⑥口 |①---|
口⑤③口 |②-③-|
口②④口 |--④-|
口①①口 |⑤-⑥-|
41
①①口口 |①---|
⑤口口② |②-③-|
③③口⑥ |--④-|
口口口④ |⑤-⑥-|
42
口口口口 |①---|
口③⑤口 |②-③-|
口④②口 |--④-|
口①①口 |⑤---|
43
口口①① |①---|
②口口口 |②-③-|
口口③③ |--④-|
④⑤⑤口 |⑤---|
44
④③①② |①-②-|
④③①② |③-④-|
口⑦⑥口 |⑤---|
⑤口口⑤ |--⑥⑦|
45
④③①② |①-②-|
④③①② |③-④-|
⑥口口⑥ |⑤---|
⑤口口⑤ |⑥---|
46
口口口口 |①---|
口口口口 |----|
口①①口 |----|
口①①口 |----|
47
口口口口 |----|
口口口口 |----|
口口口口 |----|
口口口口 |----|
48
口口口口 |①---|
口③⑤口 |②-③-|
口④②口 |--④-|
①口口① |⑤---|
49
口②③口 |①-②-|
口口口口 |--③-|
口口口口 |④---|
⑤④①⑤ |⑤---|
50
口口口口 |①---|
口①①口 |----|
口①①口 |----|
口口口口 |----|
51
口口口口 |----|
口口口口 |----|
口口口口 |----|
口口口口 |----|
52
口口口口 |--①-|
⑤⑦口② |②-③-|
①③⑥④ |④-⑤-|
口口口口 |⑥-⑦-|
53
口口口口 |①-②-|
⑧口口口 |③-④-|
⑤⑥⑦口 |--⑤⑥|
④③②① |⑦-⑧-|
54
口①①口 |①---|
口①①口 |----|
口口口口 |----|
口口口口 |----|
55
口口口口 |----|
口口口口 |----|
口口口口 |----|
口口口口 |----|
56
口口⑥口 |①-②-|
口④口口 |③-④-|
口口⑤口 |--⑤-|
口③②① |⑥---|
57
②⑥⑦① |①-②-|
口口③口 |③-④-|
口④口口 |⑤-⑥-|
口⑧⑤口 |⑦-⑧-|
58
口口口口 |①---|
①口口① |----|
①口口① |----|
口口口口 |----|
59
口口口口 |----|
口口口口 |----|
口口口口 |----|
口口口口 |----|
60
口①①口 |①---|
⑤③④② |②-③-|
⑤③④② |--④-|
口口口口 |⑤---|
61
③②②口 |①-②-|
口口口口 |--③-|
口口口口
口①①口

口口口④
口口口口
⑤口口口 |④-⑤-|
⑤口⑥⑥ |--⑥-|
62
⑤口口口 |①-②-|
①②口口 |--③-|
口③口④ |--④-|
口口口口 |--⑤-|
63
口口口① |--①-|
口口口口 |--②-|
③口口口 |--③-|
④口②口 |--④-|
64
口口④口 |--①-|
口口①口 |--②-|
③口②口 |--③-|
口口口口 |--④-|
65
①口口口 |--①-|
口口口口 |--②-|
口口口③ |--③-|
口②口④ |--④-|
66
⑤①②⑥ |①-②-|
⑦③④⑧ |③-④-|
口口口口 |⑤-⑥-|
口口口口 |⑦-⑧-|
67
口口口口 |①-②-|
口口口口 |③-④-|
⑤①②⑥ |⑤-⑥-|
⑦③④⑧ |⑦-⑧-|
68
④③⑦⑧ |①-②-|
②①⑤⑥ |③-④-|
口口口口 |⑤-⑥-|
口口口口 |⑦-⑧-|
69
口口口口 |①-②-|
口口口口 |③-④-|
②①⑤⑥ |⑤-⑥-|
④③⑦⑧ |⑦-⑧-|
70
口①①口 |①---|
口口口口 |----|
口口口口 |----|
口口口口 |----|
71
口口口口 |①---|
口①①口 |----|
口口口口 |----|
口口口口 |----|
72
口口口口 |①---|
口口口口 |----|
口①①口 |----|
口口口口 |----|
73
⑤口②① |①-②-|
⑤③②① |③-④-|
口③④⑥ |--⑤-|
口口④⑥ |⑥---|
74
②②①① |①---|
口口口口 |----|
口口口口 |②---|
口口口口 |----|
75
口口口口 |①---|
口口口口 |----|
口口口口 |②---|
②②①① |----|
76
②②①① |①---|
口口口口 |----|
口口口口 |②---|
口口口口 |----|
77
⑤口②① |①-②-|
⑤③②① |③-④-|
口③④⑥ |--⑤-|
口口④⑥ |⑥---|
78
③口口① |①---|
口④②口 |②---|
口口口口 |③---|
口口口口 |④---|
79
口口口口 |①---|
口口口口 |②---|
口④②口 |③---|
③口口① |④---|
80
②口①① |①-②③|
③口口口 |④---|
④口口口 |--⑤-|
口口⑤⑤ |----|
81
口口口口 |①-②-|
④③②① |③-④-|
⑤⑥⑦⑧ |⑤-⑥-|
口口口口 |⑦-⑧-|
82
②①①② |①---|
口口口口 |②---|
口口口口 |③---|
④③③④ |④---|
83
口口口口 |①---|
②①①② |②---|
④③③④ |③---|
口口口口 |④---|
84
⑤⑤①② |①-②-|
口口①② |③---|
口口口口 |④-⑤-|
③③④④ |----|
85
口口口口 |①-②-|
①②③④ |③-④-|
⑧⑦⑥⑤ |⑤-⑥-|
口口口口 |⑦-⑧-|
86
④①①③ |①---|
口⑥⑤口 |②---|
口口口口 |③-④-|
口②②口 |⑤-⑥-|
87
口口口口 |①-②-|
⑧口口⑦ |③-④-|
⑥②①⑤ |⑤-⑥-|
④口口③ |⑦-⑧-|
88
口②①口 |①-②-|
口②①口 |③---|
口口口口 |--④-|
④③③④ |----|
89
口口口口 |①-②-|
⑤③⑦① |③-④-|
④⑥②⑧ |⑤-⑥-|
口口口口 |⑦-⑧-|
90
③①①④ |①---|
口⑤⑥口 |②---|
口口口口 |③-④-|
口②②口 |⑤-⑥-|
91
口口口口 |①-②-|
⑦口口⑧ |③-④-|
⑤①②⑥ |⑤-⑥-|
③口口④ |⑦-⑧-|
92
⑥①②⑦ |①-②-|
口①②口 |③---|
口口口口 |④-⑤-|
④③③⑤ |⑥-⑦-|
93
口口口口 |①-②-|
①⑦③⑤ |③-④-|
⑧②⑥④ |⑤-⑥-|
口口口口 |⑦-⑧-|
94
口口口口 |①---|
口口口口 |----|
口口口口 |----|
口①①口 |----|


不確定度: 0

最終更新:2013年12月29日 02:09