Sky Is The Limit
Sota F. feat.Anna

BASIC

Level: 3
BPM: 150
Notes: 199

1
口口口口 |----|
口口口口 |----|
口口口口 |----|
口口口口 |----|
2
口口口① |①---|
口口口② |②---|
口口口③ |③---|
口口口④ |④---|
3
④口口口 |①---|
③口口口 |②---|
②口口口 |③---|
①口口口 |④---|
4
口口①口 |①---|
口口②口 |②---|
口口③口 |③---|
口口④口 |④---|
5
口④口口 |①---|
口③口口 |②---|
口②口口 |③---|
口①口口 |④---|
6
口口口① |①---|
口口③口 |----|
口②口口 |②---|
口口口口 |③---|
7
口①口口 |①---|
口口口口 |----|
口口口② |②---|
口③口口 |③---|
8
②口口口 |①---|
口口①口 |----|
口口口口 |----|
口口口口 |②---|
9
口口口口 |①---|
口口②口 |----|
口①口口 |②---|
口口口口 |----|
10
口口口口 |----|
口口口口 |①---|
口③口口 |②---|
①口口② |③---|
11
口口口口 |①---|
口③②① |②---|
口口口口 |③---|
口口口口 |----|
12
口口口口 |----|
口口口③ |①---|
口②①口 |②---|
口口口口 |③---|
13
①②③④ |①---|
口口口口 |②---|
口口口口 |③---|
口口口口 |④---|
14
口口口口 |----|
口①②口 |①---|
③口口口 |②---|
口口口口 |③---|
15
口口口口 |①---|
口口口口 |②---|
口口口口 |③---|
④③②① |④---|
16
口口口口 |----|
口口口③ |①---|
口②①口 |②---|
口口口口 |③---|
17
①②③口 |①---|
口口口口 |②---|
口口口口 |③---|
口口口口 |----|
18
口口口口 |----|
口口口口 |①---|
口③口口 |②---|
①口口② |③---|
19
口口口口 |①---|
口③②① |②---|
口口口口 |③---|
口口口口 |----|
20
口口口口 |----|
口口口③ |①---|
口②①口 |②---|
口口口口 |③---|
21
①②③④ |①---|
口口口口 |②---|
口口口口 |③---|
口口口口 |④---|
22
口口口口 |----|
口①②口 |①---|
③口口口 |②---|
口口口口 |③---|
23
口口口口 |①---|
口口口口 |②---|
口口口口 |③---|
④③②① |④---|
24
口口口口 |----|
口口口③ |①---|
口②①口 |②---|
口口口口 |③---|
25
①②③口 |①---|
口口口口 |②---|
口口口口 |③---|
口口口口 |----|
26
口口口口 |①---|
口口口口 |--②-|
①口口① |----|
口②②口 |----|
27
口②②口 |①---|
①口口① |--②-|
口口口口 |----|
口口口口 |----|
28
①口口① |①---|
口②②口 |--②-|
口口口口 |----|
口口口口 |----|
29
口口口口 |①---|
口口口口 |--②-|
口②②口 |----|
①口口① |----|
30
②口口② |①---|
口①①口 |--②-|
口口口口 |----|
口口口口 |----|
31
口口口口 |①---|
口口口口 |--②-|
口①①口 |----|
②口口② |----|
32
口口口口 |①---|
口口口口 |--②-|
②口口② |----|
口①①口 |----|
33
②口口② |①---|
口①①口 |--②-|
口口口口 |----|
口口口口 |----|
34
口口口口 |①---|
口①①口 |----|
口①①口 |----|
口口口口 |----|
35
口口口口 |----|
口口口口 |----|
口口口口 |----|
口口口口 |----|
36
口口口口 |----|
口口口口 |----|
口口口口 |----|
口口口口 |----|
37
口口口口 |----|
口口口口 |----|
口口口口 |----|
口口口口 |----|
38
口口口口 |①---|
口口口口 |②---|
口③④口 |③---|
口①②口 |④---|
39
口③④口 |①---|
口①②口 |②---|
口口口口 |③---|
口口口口 |④---|
40
①口口② |①---|
③口口④ |②---|
口口口口 |③---|
口口口口 |④---|
41
口口口口 |①---|
口口口口 |②---|
①口口② |③---|
③口口④ |④---|
42
口口口口 |①---|
口②②口 |----|
口①①口 |②---|
口口口口 |----|
43
①口口① |①---|
口②②口 |----|
口口口③ |②---|
口口口口 |③---|
44
口口口口 |①---|
口口口口 |----|
①口口口 |②---|
口②口口 |----|
45
口口口口 |①---|
口②口口 |----|
口口①口 |②---|
口口口口 |----|
46
①口口① |①---|
②口口② |----|
口口口口 |②---|
口口口口 |----|
47
口口口口 |①---|
口口口口 |----|
①口口① |②---|
②③口② |③---|
48
口口口口 |①---|
口口口口 |----|
口②口口 |②---|
口口①口 |----|
49
口②口口 |①---|
口口①口 |----|
口口口口 |②---|
口口口口 |----|
50
口口口口 |①---|
口②②口 |----|
口①①口 |②---|
口口口口 |----|
51
①口口① |①---|
口②②口 |----|
口口口③ |②---|
口口口口 |③---|
52
口口口口 |①---|
口口口口 |----|
①口口口 |②---|
口②口口 |----|
53
口口口口 |①---|
口②口口 |----|
口口①口 |②---|
口口口口 |----|
54
①口口① |①---|
②口口② |----|
口口口口 |②---|
口口口口 |----|
55
口口口口 |①---|
口口口口 |----|
①口口① |②---|
②③口② |③---|
56
口口口口 |①---|
口口口口 |----|
口②口口 |②---|
口口①口 |----|
57
口口口口 |①---|
口口①口 |----|
口口口口 |----|
口口口口 |----|
58
①①①① |①---|
口口口口 |----|
口口口口 |----|
口口口口 |----|
59
④③②① |①---|
口口口口 |②---|
口口口口 |③---|
口口口口 |④---|
60
口口口口 |①---|
①②③④ |②---|
口口口口 |③---|
口口口口 |④---|
61
口口口口 |①---|
口口口口 |②---|
④③②① |③---|
口口口口 |④---|
62
口口口口 |①---|
口口口口 |----|
口口口口 |----|
口①①口 |----|


不確定度: 0

最終更新:2013年12月29日 01:46