Sky Is The Limit
Sota F. feat.Anna

ADVANCED

Level: 7
BPM: 150
Notes: 440

1
口口口口 |----|
口口口口 |----|
口口口口 |----|
口口口口 |----|
2
②口口① |--①-|
⑤口口口 |-②--|
口口口口 |③--④|
③口口④ |--⑤-|
3
口口口口 |--①-|
口②①口 |-②--|
口③④口 |③--④|
口⑤口口 |--⑤-|
4
③口口④ |--①-|
口口口口 |-②--|
⑤口口口 |③--④|
②口口① |--⑤-|
5
⑤口口口 |--①-|
口②①口 |-②--|
口③④口 |③--④|
口口口口 |--⑤-|
6
口口③③ |①---|
②②口口 |----|
口口口口 |②---|
口口①① |③---|
7
口口口口 |①---|
口口口口 |----|
口①①口
口口口口

口口口口
口口口口
口③④口 |②---|
②口口② |③-④-|
8
①口③① |①---|
口口口口 |----|
②口口② |②---|
口口口口 |③---|
9
口④④口 |①---|
口③③口 |②---|
口②②口 |③---|
口①①口 |④---|
10
①口⑥⑥ |①---|
口③口口 |②---|
口②②口 |③-④-|
口⑤④口 |⑤-⑥-|
11
③口口口 |--①-|
口口①① |--②-|
口口②② |----|
口口口口 |③---|
12
口⑤③口 |①---|
口②②口 |②---|
口④口口 |③-④-|
①⑥口⑥ |⑤-⑥-|
13
②口②口 |--①-|
口③口③ |--②-|
①口①口 |----|
口口口口 |③---|
14
口⑤口⑤ |----|
口④②口 |①---|
口①①口 |②-③-|
口③口口 |④-⑤-|
15
②口②口 |--①-|
③口④口 |--②-|
③①④① |--③-|
口口口口 |④---|
16
⑤①⑤① |----|
口口④口 |①---|
口③口口 |②-③-|
口口②口 |④-⑤-|
17
⑤口口⑤ |--①-|
口①③① |--②-|
②口②口 |③-④-|
口④口口 |⑤---|
18
口口⑥⑥ |①---|
口③口口 |②---|
口②②口 |③-④-|
①⑤④① |⑤-⑥-|
19
③③口口 |--①-|
口口①① |--②-|
口口②② |----|
口口口口 |③---|
20
口口口口 |①---|
口②②口 |②---|
口口口口
①①口口

口⑤③口
口口口口
口④口口 |③-④-|
口⑥口⑥ |⑤-⑥-|
21
②口②口 |--①-|
口③口③ |--②-|
①口①口 |----|
口口口口 |③---|
22
口⑤口⑤ |----|
口④②口 |①---|
口①①口 |②-③-|
口③口口 |④-⑤-|
23
②口②口 |--①-|
③口④口 |--②-|
③①④① |--③-|
口口口口 |④---|
24
⑤①⑤① |----|
⑤口④口 |①---|
口③口口 |②-③-|
口口②口 |④-⑤-|
25
口口口口 |--①-|
口①口① |--②-|
②口②① |----|
②口口口 |----|
26
⑥⑥⑤⑤ |①--②|
④①④① |--③-|
口③口③ |-④--|
②口②口 |⑤-⑥-|
27
口⑤⑥口 |-①--|
④口④口 |②--③|
口①口① |--④-|
②③②③ |-⑤⑥-|
28
⑥⑥⑤⑤ |①--②|
④①④① |--③-|
②③②③ |-④--|
口口口口 |⑤-⑥-|
29
口口口口 |-①②-|
口④⑤口 |③-④⑤|
口①②口
③口口③

口口口口
口口口口
口⑦⑧口 |--⑥-|
口⑥⑥口 |-⑦⑧-|
30
①口①口 |①--②|
口②口② |--③-|
口口口口
③口③口

⑥⑥⑤⑤
口口口口
口④口④ |-④--|
口口口口 |⑤-⑥-|
31
口⑥⑦口 |--①-|
①⑤①⑤ |②③-④|
口④口④ |--⑤-|
口②③口 |-⑥⑦-|
32
⑤⑤⑥⑥ |-①--|
③④③④ |②--③|
口②口② |--④-|
①口①口 |-⑤-⑥|
33
⑦⑥⑥⑦ |-①②-|
口④⑤口 |③-④⑤|
口①②口 |--⑥-|
③口③口 |-⑦--|
34
口口口口 |①---|
①口口① |----|
①口口① |----|
口口口口 |----|
35
口口口口 |----|
口口口口 |----|
口口口口 |----|
口口口口 |----|
36
口口口口 |----|
口口口口 |----|
口口口口 |----|
口口口口 |----|
37
口口口口 |----|
口口口口 |----|
口口口口 |----|
口口口口 |----|
38
②口口① |--①-|
⑤口口口 |-②--|
口口口口 |③--④|
③口口④ |--⑤-|
39
口口口口 |--①-|
口②①口 |-②--|
口③④口 |③--④|
口⑤口口 |--⑤-|
40
③口口④ |--①-|
口口口口 |-②--|
⑤口口口 |③--④|
②口口① |--⑤-|
41
口口①口 |①-②-|
⑤②口⑤ |③-④-|
口口③口 |--⑤-|
口④口口 |----|
42
口口口② |①---|
口①①口 |--②-|
口口口②
口口口口

③口口口
④④口口
③⑤⑤口 |③---|
口口口口 |④-⑤-|
43
口口口口 |①---|
④口口③ |----|
口④③口 |②---|
②②①① |③-④-|
44
口①①口 |①---|
⑤②②⑤ |--②-|
口口③③ |③--④|
④④口口 |--⑤-|
45
口口口口 |①---|
口③②口 |--②-|
口③②口 |③---|
口口①① |----|
46
口①口① |①---|
口口口口 |--②-|
口②口②
口口口口

④④口口
③⑤③⑤
口口口口 |③---|
口口口口 |④-⑤-|
47
口③口口 |①---|
④口口④ |----|
口口③口 |②---|
①②①② |③-④-|
48
口口①口 |①---|
口口②口 |--②-|
口①口口
口口②口

④口口④
口③口口
口⑤⑤口 |③--④|
口③口口 |--⑤-|
49
口②②口 |①---|
①②②① |----|
口口口口 |②---|
①口口① |----|
50
①口口① |①---|
口口口② |--②-|
口①①口
口口口②

口口口口
③口口口
口④④⑤ |③--④|
③口⑤口 |--⑤-|
51
口口口口 |①---|
口①口口 |----|
①口口口
口口口口

口口口口
口④④口
③③口口 |②---|
②口口② |③-④-|
52
口②①① |①---|
②口口③ |--②-|
口⑤③⑤ |③---|
④④口口 |④-⑤-|
53
③口②口 |①---|
口①①口 |--②-|
③口②口 |③---|
口口口口 |----|
54
口口口口 |①---|
口①口① |--②-|
口口口口
②口②口

口④④口
口⑤口⑤
口③口③ |③--④|
口口口口 |--⑤-|
55
口口口口 |①---|
口口口口 |----|
①口①口
口口口口

口口口口
口④④口
口口③③ |②---|
口②②口 |③-④-|
56
①①②口 |①---|
③④④② |--②-|
⑤③口口 |③--④|
⑤口口口 |--⑤-|
57
口口口④ |①---|
口③口④ |----|
口③②① |--②-|
口口②① |③-④-|
58
①口②口 |①---|
口口口口 |②---|
口口口口 |③---|
口③口④ |④---|
59
口②口口 |①---|
口口口④ |②---|
①口口口 |③---|
口口③口 |④---|
60
口口④口 |①---|
②口口口 |②---|
口口口③ |③---|
口①口口 |④---|
61
③口口③ |①---|
口口口口 |②--③|
口②②口
口①①口

口口口口
⑥④⑤⑥
口口口口 |----|
口⑥⑥口 |④⑤-⑥|


不確定度: 0

最終更新:2013年12月29日 01:45