マインド・ゲーム
96 with メカショッチョー

EXTREME

Level: 9
BPM: 180
Notes: 733

1
口口口口 |----|
口口口口 |----|
口口口口 |----|
口口口口 |----|
2
口口口② |①---|
①①①② |----|
①①①② |②---|
口①口② |----|
3
①①口口 |①---|
①①口口 |----|
口口口口 |----|
口口口口 |----|
4
口②口口 |①---|
③口口口 |②-③-|
⑤④口口 |④-⑤-|
①⑥口① |--⑥-|
5
口口④③ |--①-|
口口②⑤ |②-③-|
口口⑥① |--④-|
口口口口 |⑤-⑥-|
6
②③口⑦ |①---|
口口④⑤ |②-③-|
口口口⑥ |④-⑤-|
①口口① |⑥-⑦-|
7
⑥口口口 |--①-|
口①口口 |②-③-|
⑤④②口 |--④-|
口③口口 |⑤-⑥-|
8
⑦口口④ |①-②-|
口口口口 |③-④-|
⑥⑤②③ |--⑤-|
①口口① |⑥-⑦-|
9
口⑦口④ |①-②-|
口口⑥口 |③-④-|
口⑤②③ |--⑤-|
①口口① |⑥-⑦-|
10
④口口口 |①-②-|
③口口⑦ |③-④-|
②⑧⑧⑥ |⑤-⑥-|
①⑤①⑤ |⑦-⑧-|
11
口③③口 |--①-|
口②①口 |②-③-|
口口口口 |----|
口口口口 |----|
12
②口口① |①-②-|
④④③③ |③-④-|
⑥⑥⑤⑤ |⑤-⑥-|
⑧⑧口⑦ |⑦-⑧-|
13
②②口① |①-②-|
④④③③ |③-④-|
⑥⑥口⑤ |⑤-⑥-|
⑧⑧⑦⑦ |⑦-⑧-|
14
②⑥③① |①-②-|
④④⑤③ |③-④-|
⑥口⑦⑤ |⑤-⑥-|
⑧⑧口⑦ |⑦-⑧-|
15
②⑥口① |①-②-|
④④口③ |③-④-|
⑥②⑦⑤ |⑤-⑥-|
⑧口⑧⑦ |⑦-⑧-|
16
②口④① |①-②-|
④⑥③③ |③-④-|
⑥②⑦⑤ |⑤-⑥-|
⑧口⑧⑦ |⑦-⑧-|
17
②⑥④① |①-②-|
④口③③ |③-④-|
⑥②⑦⑤ |⑤-⑥-|
⑧口⑧⑦ |⑦-⑧-|
18
②口③① |①-②-|
④④⑤③ |③-④-|
⑥②⑦⑤ |⑤-⑥-|
⑧⑥⑧⑦ |⑦-⑧-|
19
②④④① |①-②-|
口口口③ |③-④-|
⑤⑥⑦⑧ |--⑤⑥|
⑨⑩口口 |⑦⑧⑨⑩|
20
②②口① |①---|
③口口⑥ |②---|
口④口⑥ |③-④-|
口口⑤口 |⑤-⑥-|
21
⑥口①⑥ |--①-|
口②口⑤ |②-③-|
③口④口 |--④-|
③口口口 |⑤-⑥-|
22
口口口口 |--①-|
口②①口 |②---|
③口口口 |----|
口③口口 |--③-|
23
①口②口 |--①-|
口③口② |②---|
⑤口④口 |--③-|
⑤口口① |④-⑤-|
24
口③口口 |----|
口口②口 |----|
口口口① |--①-|
口口口口 |②-③-|
25
口口⑤口 |①-②-|
①⑥口④ |③---|
⑦②口口 |④-⑤-|
⑦口③③ |⑥-⑦-|
26
口④口⑥ |--①-|
⑤口③口 |②---|
口口口② |③-④-|
口①口② |⑤-⑥-|
27
①⑤⑤口 |①-②-|
口口口口 |③-④-|
口③②口 |--⑤-|
④口口④ |----|
28
②口口① |①-②-|
④⑥③③ |③-④-|
⑥口⑦⑤ |⑤-⑥-|
⑧⑧⑤⑦ |⑦-⑧-|
29
②④⑤① |①-②-|
④⑥③③ |③-④-|
⑥②口⑤ |⑤-⑥-|
⑧⑧⑦⑦ |⑦-⑧-|
30
②口口① |①-②-|
④口③③ |③-④-|
口②口口
口口口口

口口口⑧
口⑥口口
口口⑤口 |⑤-⑥-|
⑧口⑦口 |⑦-⑧-|
31
口⑤①口 |--①-|
②口④② |②---|
②③口② |--③-|
口①口口 |④-⑤-|
32
②口口① |①-②-|
④②口③ |③-④-|
⑥⑧口⑤ |⑤-⑥-|
⑧⑥口⑦ |⑦-⑧-|
33
②②⑤① |①-②-|
④⑧③③ |③-④-|
⑥口⑦⑤ |⑤-⑥-|
⑧⑥口⑦ |⑦-⑧-|
34
②口口① |①-②-|
④口口③ |③-④-|
⑥口口⑤ |⑤-⑥-|
⑧⑧口⑦ |⑦-⑧-|
35
⑧⑥③⑦ |--①②|
口②⑤口 |③-④⑤|
⑩④①⑨ |⑥-⑦⑧|
口口口口 |--⑨⑩|
36
口⑥⑥⑤ |①-②-|
口④口⑤ |--③④|
口口③口 |⑤---|
②②①① |--⑥-|
37
口口口口 |--①-|
⑥②①⑤ |②-③-|
口④③⑦ |④-⑤-|
口口口口 |⑥-⑦-|
38
口⑥口⑤ |①-②-|
口④口⑤ |--③④|
口口③口 |⑤---|
①①②② |--⑥-|
39
①口口口 |--①-|
口④⑤口 |--②-|
②⑥口③ |③-④-|
口口口口 |⑤-⑥-|
40
口⑥⑥⑤ |①-②-|
口④口⑤ |--③④|
口口③口 |⑤---|
②②①① |--⑥-|
41
口⑦⑦口 |--①-|
口②①口 |②-③-|
口④③口 |④-⑤-|
⑥口口⑤ |⑥-⑦-|
42
③⑩⑩② |--①-|
口⑦⑥口 |②③-④|
⑤⑨⑧④ |⑤-⑥⑦|
口①①口 |⑧⑨⑩-|
43
口口口口 |----|
口口口口 |----|
口口口口 |----|
口口口口 |----|
44
①①口口 |①---|
口①③口 |②-③-|
①口口②
①①口口

⑥⑥⑥⑥
口口口口
口④口口 |④-⑤-|
口口⑤口 |--⑥-|
45
口口⑥口 |--①-|
③①②④ |②-③-|
③③口⑤ |④-⑤-|
③③⑦口 |⑥-⑦-|
46
①⑤⑥④ |①---|
⑦①③口 |②-③-|
口②①口 |④-⑤-|
口口口① |⑥-⑦-|
47
口口口口 |--①-|
⑥④口② |②---|
①口②② |③-④-|
⑤③②② |⑤-⑥-|
48
②口口① |①-②-|
口口口口 |③-④-|
④口口③
口口口口

口口⑧⑧
口口口口
口⑥口口 |⑤-⑥-|
口⑦⑤口 |⑦-⑧-|
49
①②口口 |①-②-|
口③⑥⑧ |③-④-|
口口④口 |⑤-⑥-|
口口⑤⑦ |⑦-⑧-|
50
①②口口 |①-②-|
③④口口 |③-④-|
口口⑥⑤ |⑤-⑥-|
口口⑧⑦ |⑦-⑧-|
51
⑧⑦口口 |--①②|
①②③④ |③④⑤⑥|
⑧⑦口口 |--⑦-|
⑤⑥口口 |⑧---|
52
②口①① |--①-|
口③①① |----|
④口①口 |--②-|
口口口口 |③-④-|
53
⑤口④口 |①-②-|
口⑥口③ |③-④-|
⑦口②口 |--⑤-|
①口口① |⑥-⑦-|
54
口⑦④口 |①-②-|
⑥口口③ |③-④-|
口⑤②口 |--⑤-|
①口口① |⑥-⑦-|
55
③口口② |①-②-|
口⑤④口 |③-④-|
⑦口口⑥ |⑤-⑥-|
①口⑧① |⑦-⑧-|
56
⑤口④口 |①-②-|
口⑥口③ |③-④-|
⑦口②口 |--⑤-|
①口口① |⑥-⑦-|
57
口⑦④口 |①-②-|
⑥口口③ |③-④-|
口⑤②口 |--⑤-|
①口口① |⑥-⑦-|
58
③口口② |①-②-|
口⑤④口 |③-④-|
口口口⑥ |⑤-⑥-|
①⑦⑦① |--⑦-|
59
②②④④ |--①-|
口口⑥⑤ |②---|
口③①口 |③-④-|
口口口口 |⑤-⑥-|
60
③口口口 |①---|
口①口口 |--②-|
口口口口 |----|
②口口口 |③---|
61
口①口口 |①---|
口口口口 |--②-|
口口口口 |----|
口②③口 |③---|
62
口口①口 |①---|
口②口口 |--②-|
口口③口 |③---|
口口口口 |----|
63
口④口口 |①-②-|
⑤口③口 |③-④-|
口⑥口② |⑤-⑥-|
⑦口①口 |⑦---|
64
口口③① |①---|
口口口口 |--②-|
口口口口 |----|
口口口② |③---|
65
④⑤⑥⑦ |①-②-|
口口口口 |③-④-|
口口口口 |⑤-⑥-|
③②①口 |⑦---|
66
口口口口 |--①-|
①①①① |----|
①①①① |----|
口口口口 |----|
67
口口口口 |①---|
①①①① |----|
①①①① |----|
口口口口 |----|
68
口口口口 |①---|
①口口① |----|
①口口① |----|
口口口口 |----|
69
口⑥口口 |--①-|
口口④口 |②-③-|
口口口② |④-⑤-|
⑦⑤③① |⑥-⑦-|
70
①口口口 |①---|
①口②口 |----|
口③④口 |--②-|
口口口口 |③-④-|
71
①①口口 |①---|
口口③口 |----|
口②口口 |----|
口口口口 |②-③-|
72
口口②口 |①---|
口口口口 |----|
口口③口 |----|
口口①① |②-③-|
73
口口口口 |①---|
①①口口 |----|
口口口口 |----|
口口口口 |----|
74
⑦口⑥① |①-②③|
②③④口 |④-⑤-|
口⑤口⑧ |⑥-⑦-|
⑨口口口 |⑧-⑨-|
75
口⑧⑪⑦ |①②③④|
⑫④③口 |⑤⑥⑦⑧|
②⑥⑨⑬ |⑨⑩⑪⑫|
口⑩①⑤ |⑬---|
76
口口口口 |①---|
口①①口 |②---|
口口口口
②口口②

④口口③
⑤⑥⑦口
口口口口 |③-④-|
口口口口 |⑤⑥⑦-|
77
口口口口 |①-②③|
口口口口 |④-⑤⑥|
④③②⑥
口①口⑤

⑧⑨⑩口
口口口⑦
口口口口 |⑦-⑧⑨|
口⑫⑪口 |⑩-⑪⑫|
78
口口口口 |①---|
③②口口 |--②-|
④⑤口口 |③-④-|
①⑥口口 |⑤-⑥-|
79
②③④口 |①-②-|
口⑤⑥口 |③④⑤⑥|
⑦口口口 |⑦---|
①口口口 |----|
80
口③口② |①---|
①⑤④① |②③④⑤|
口口口口
口口口口

⑬口口口
⑪口口⑫
口⑦⑥⑩ |⑥⑦⑧⑨|
⑨口⑧口 |⑩⑪⑫⑬|
81
口⑥①⑦ |①②③④|
口⑧⑤口 |⑤⑥⑦⑧|
②口口口
口④口③

⑯口⑮口
⑫口口口
口⑭⑨⑬ |⑨⑩⑪⑫|
⑩口⑪口 |⑬⑭⑮⑯|
82
口⑥口⑦ |①②③④|
口⑧⑤③ |⑤⑥⑦⑧|
②口口口
口④口①

⑯口⑬口
⑫口口口
口⑭⑪口 |⑨⑩⑪⑫|
⑩口⑨⑮ |⑬⑭⑮⑯|
83
口⑧口⑤ |①②③④|
口⑥③口 |⑤⑥⑦⑧|
④口口①
口②⑦口

口口⑬口
⑫口口⑨
口⑭⑪口 |⑨⑩⑪⑫|
⑩⑯口⑮ |⑬⑭⑮⑯|
84
④口口② |①-②-|
口⑤⑤口 |③-④-|
③口口① |--⑤-|
⑥口口⑥ |--⑥-|
85
口①①口 |①---|
①口口① |----|
口口口口 |----|
口口口口 |----|

不確定度: 0

最終更新:2014年07月27日 02:25